  0
SECTION
  2
HEADER
  9
$ACADVER
  1
AC1004
  9
$INSBASE
 10
0.0
 20
0.0
  9
$EXTMIN
 10
-0.3
 20
-0.425
  9
$EXTMAX
 10
10.7
 20
8.075
  9
$LIMMIN
 10
-0.3
 20
-0.425
  9
$LIMMAX
 10
10.7
 20
8.075
  9
$VIEWCTR
 10
6.0
 20
4.5
  9
$VIEWSIZE
 40
9.0
  9
$SNAPMODE
 70
     0
  9
$SNAPUNIT
 10
0.1
 20
0.1
  9
$SNAPBASE
 10
0.0
 20
0.0
  9
$SNAPANG
 50
0.0
  9
$SNAPSTYLE
 70
     0
  9
$SNAPISOPAIR
 70
     0
  9
$GRIDMODE
 70
     1
  9
$GRIDUNIT
 10
1.0
 20
1.0
  9
$ORTHOMODE
 70
     0
  9
$REGENMODE
 70
     1
  9
$FILLMODE
 70
     1
  9
$QTEXTMODE
 70
     0
  9
$DRAGMODE
 70
     2
  9
$LTSCALE
 40
0.1
  9
$OSMODE
 70
     0
  9
$ATTMODE
 70
     1
  9
$TEXTSIZE
 40
0.2
  9
$TRACEWID
 40
0.05
  9
$TEXTSTYLE
  7
STANDARD
  9
$CLAYER
  8
LAYER01
  9
$CELTYPE
  6
CONTINUOUS
  9
$CECOLOR
 62
     7
  9
$DIMSCALE
 40
1.0
  9
$DIMASZ
 40
0.18
  9
$DIMEXO
 40
0.0625
  9
$DIMDLI
 40
0.38
  9
$DIMRND
 40
0.0
  9
$DIMDLE
 40
0.0
  9
$DIMEXE
 40
0.18
  9
$DIMTP
 40
0.0
  9
$DIMTM
 40
0.0
  9
$DIMTXT
 40
0.18
  9
$DIMCEN
 40
0.09
  9
$DIMTSZ
 40
0.0
  9
$DIMTOL
 70
     0
  9
$DIMLIM
 70
     0
  9
$DIMTIH
 70
     1
  9
$DIMTOH
 70
     1
  9
$DIMSE1
 70
     0
  9
$DIMSE2
 70
     0
  9
$DIMTAD
 70
     0
  9
$DIMZIN
 70
     0
  9
$DIMBLK
  1

  9
$DIMASO
 70
     1
  9
$DIMSHO
 70
     1
  9
$DIMPOST
  1

  9
$DIMAPOST
  1

  9
$DIMALT
 70
     0
  9
$DIMALTD
 70
     2
  9
$DIMALTF
 40
25.4
  9
$DIMLFAC
 40
1.0
  9
$LUNITS
 70
     2
  9
$LUPREC
 70
     4
  9
$AXISMODE
 70
     0
  9
$AXISUNIT
 10
0.0
 20
0.0
  9
$SKETCHINC
 40
0.1
  9
$FILLETRAD
 40
0.5
  9
$AUNITS
 70
     0
  9
$AUPREC
 70
     0
  9
$MENU
  1
acad
  9
$ELEVATION
 40
0.0
  9
$THICKNESS
 40
0.0
  9
$VIEWDIR
 10
0.0
 20
0.0
 30
1.0
  9
$LIMCHECK
 70
     0
  9
$BLIPMODE
 70
     1
  9
$CHAMFERA
 40
0.5
  9
$CHAMFERB
 40
0.5
  9
$FASTZOOM
 70
     1
  9
$SKPOLY
 70
     0
  9
$TDCREATE
 40
0.0
  9
$TDUPDATE
 40
0.0
  9
$TDINDWG
 40
0.0
  9
$TDUSRTIMER
 40
0.0
  9
$USRTIMER
 70
     1
  9
$ANGBASE
 50
0.0
  9
$ANGDIR
 70
     0
  9
$PDMODE
 70
     0
  9
$PDSIZE
 40
0.0
  9
$PLINEWID
 40
0.0
  9
$COORDS
 70
     1
  9
$SPLFRAME
 70
     0
  9
$SPLINESEGS
 70
    10
  9
$ATTDIA
 70
     0
  9
$ATTREQ
 70
     1
  9
$USERI1
 70
     0
  9
$USERI2
 70
     0
  9
$USERI3
 70
     0
  9
$USERI4
 70
     0
  9
$USERI5
 70
     0
  9
$USERR1
 40
0.0
  9
$USERR2
 40
0.0
  9
$USERR3
 40
0.0
  9
$USERR4
 40
0.0
  9
$USERR5
 40
0.0
  0
ENDSEC
  0
SECTION
  2
TABLES
  0
TABLE
  2
LTYPE
 70
    11
  0
LTYPE
  2
CONTINUOUS
 70
     0
  3
Solid line
 72
    65
 73
     0
 40
0.0
  0
LTYPE
  2
DASHED
 70
     0
  3
__ __ __ __ __ __ __ __ __ __ __ __ __ __ __
 72
    65
 73
     2
 40
0.75
 49
0.5
 49
-0.25
  0
LTYPE
  2
HIDDEN
 70
     0
  3
_ _ _ _ _ _ _ _ _ _ _ _ _ _ _ _ _ _ _ _ _ _ 
 72
    65
 73
     2
 40
0.25
 49
0.125
 49
-0.125
  0
LTYPE
  2
CENTER
 70
     0
  3
____ _ ____ _ ____ _ ____ _ ____ _ ____ _ __
 72
    65
 73
     4
 40
2.0
 49
1.25
 49
-0.25
 49
0.25
 49
-0.25
  0
LTYPE
  2
PHANTOM
 70
     0
  3
_____ _ _ _____ _ _ _____ _ _ _____ _ _ ____
 72
    65
 73
     6
 40
2.5
 49
1.25
 49
-0.25
 49
0.25
 49
-0.25
 49
0.25
 49
-0.25
  0
LTYPE
  2
DOT
 70
     0
  3
............................................
 72
    65
 73
     2
 40
0.25
 49
0.0
 49
-0.25
  0
LTYPE
  2
DASHDOT
 70
     0
  3
__ . __ . __ . __ . __ . __ . __ . __ . __ .
 72
    65
 73
     4
 40
1.0
 49
0.5
 49
-0.25
 49
0.0
 49
-0.25
  0
LTYPE
  2
BORDER
 70
     0
  3
__ __ . __ __ . __ __ . __ __ . __ __ . __ _
 72
    65
 73
     6
 40
1.75
 49
0.5
 49
-0.25
 49
0.5
 49
-0.25
 49
0.0
 49
-0.25
  0
LTYPE
  2
DIVIDE
 70
     0
  3
__ . . __ . . __ . . __ . . __ . . __ . . __
 72
    65
 73
     6
 40
1.25
 49
0.5
 49
-0.25
 49
0.0
 49
-0.25
 49
0.0
 49
-0.25
  0
LTYPE
  2
DOTS
 70
     0
  3
close                                       
 72
    65
 73
     2
 40
0.1
 49
0.05
 49
-0.05
  0
LTYPE
  2
CLOSE
 70
     0
  3
                                            
 72
    65
 73
     0
 40
0.0
  0
ENDTAB
  0
TABLE
  2
LAYER
 70
    11
  0
LAYER
  2
0
 70
     0
 62
     7
  6
CONTINUOUS
  0
LAYER
  2
LAYER01
 70
     0
 62
     7
  6
CONTINUOUS
  0
LAYER
  2
LAYER02
 70
     0
 62
     7
  6
CONTINUOUS
  0
LAYER
  2
LAYER03
 70
     0
 62
     7
  6
CONTINUOUS
  0
LAYER
  2
LAYER04
 70
     0
 62
     7
  6
CONTINUOUS
  0
LAYER
  2
LAYER05
 70
     0
 62
     7
  6
CONTINUOUS
  0
LAYER
  2
LAYER06
 70
     0
 62
     7
  6
CONTINUOUS
  0
LAYER
  2
LAYER07
 70
     0
 62
     7
  6
CONTINUOUS
  0
LAYER
  2
LAYER08
 70
     0
 62
     7
  6
CONTINUOUS
  0
LAYER
  2
LAYER09
 70
     0
 62
     7
  6
CONTINUOUS
  0
LAYER
  2
LAYER10
 70
     0
 62
     7
  6
CONTINUOUS
  0
ENDTAB
  0
TABLE
  2
STYLE
 70
     1
  0
STYLE
  2
STANDARD
 70
     0
 40
0.0
 41
1.0
 50
0.0
 71
     0
 42
0.0
  3
txt
  4

  0
ENDTAB
  0
TABLE
  2
VIEW
 70
     0
  0
ENDTAB
  0
ENDSEC
  0
SECTION
  2
BLOCKS
  0
BLOCK
  8
0
  2
*D0
 70
    65
 10
0.0
 20
0.0
  0
LINE
  8
LAYER01
 62
     7
 10
5.045698
 20
4.916846
 11
5.045698
 21
3.407469
  0
LINE
  8
LAYER01
 62
     7
 10
5.045698
 20
1.164877
 11
5.045698
 21
2.674254
  0
LINE
  8
LAYER01
 62
     7
 10
4.365378
 20
4.916846
 11
5.155073
 21
4.916846
  0
LINE
  8
LAYER01
 62
     7
 10
4.36565
 20
1.164877
 11
5.155073
 21
1.164877
  0
LINE
  8
LAYER01
 62
     7
 10
5.017053
 20
4.744971
 11
5.045698
 21
4.916846
  0
LINE
  8
LAYER01
 62
     7
 10
5.074343
 20
4.744971
 11
5.045698
 21
4.916846
  0
LINE
  8
LAYER01
 62
     7
 10
5.017053
 20
1.336752
 11
5.045698
 21
1.164877
  0
LINE
  8
LAYER01
 62
     7
 10
5.074343
 20
1.336752
 11
5.045698
 21
1.164877
  0
TEXT
  8
LAYER01
  6
CONTINUOUS
 62
     7
 10
5.155073
 20
2.761754
 40
0.21875
  1
3 3/4"
 50
90.0
  0
POINT
  8
LAYER01
 62
     7
 10
4.277878
 20
4.916846
  0
POINT
  8
LAYER01
 62
     7
 10
4.27815
 20
1.164877
  0
POINT
  8
LAYER01
 62
     7
 10
5.045698
 20
1.164877
  0
ENDBLK
  8
0
  0
BLOCK
  8
0
  2
*D1
 70
    65
 10
0.0
 20
0.0
  0
LINE
  8
LAYER01
 62
     7
 10
1.283731
 20
4.916846
 11
1.283731
 21
5.260596
  0
LINE
  8
LAYER01
 62
     7
 10
1.283731
 20
4.144219
 11
1.283731
 21
3.800469
  0
LINE
  8
LAYER01
 62
     7
 10
4.190378
 20
4.916846
 11
1.174356
 21
4.916846
  0
LINE
  8
LAYER01
 62
     7
 10
1.774351
 20
4.144219
 11
1.174356
 21
4.144219
  0
LINE
  8
LAYER01
 62
     7
 10
1.255086
 20
5.088721
 11
1.283731
 21
4.916846
  0
LINE
  8
LAYER01
 62
     7
 10
1.312375
 20
5.088721
 11
1.283731
 21
4.916846
  0
LINE
  8
LAYER01
 62
     7
 10
1.255086
 20
3.972344
 11
1.283731
 21
4.144219
  0
LINE
  8
LAYER01
 62
     7
 10
1.312375
 20
3.972344
 11
1.283731
 21
4.144219
  0
TEXT
  8
LAYER01
  6
CONTINUOUS
 62
     7
 10
1.393106
 20
5.369971
 40
0.21875
  1
0 3/4"
 50
90.0
  0
POINT
  8
LAYER01
 62
     7
 10
4.277878
 20
4.916846
  0
POINT
  8
LAYER01
 62
     7
 10
1.861851
 20
4.144219
  0
POINT
  8
LAYER01
 62
     7
 10
1.283731
 20
4.144219
  0
ENDBLK
  8
0
  0
BLOCK
  8
0
  2
*D2
 70
    65
 10
0.0
 20
0.0
  0
LINE
  8
LAYER01
 62
     7
 10
1.284432
 20
4.144219
 11
1.284432
 21
3.442594
  0
LINE
  8
LAYER01
 62
     7
 10
1.284432
 20
2.007754
 11
1.284432
 21
2.709379
  0
LINE
  8
LAYER01
 62
     7
 10
1.774351
 20
4.144219
 11
1.175057
 21
4.144219
  0
LINE
  8
LAYER01
 62
     7
 10
2.259907
 20
2.007754
 11
1.175057
 21
2.007754
  0
LINE
  8
LAYER01
 62
     7
 10
1.255788
 20
3.972344
 11
1.284432
 21
4.144219
  0
LINE
  8
LAYER01
 62
     7
 10
1.313077
 20
3.972344
 11
1.284432
 21
4.144219
  0
LINE
  8
LAYER01
 62
     7
 10
1.255788
 20
2.179629
 11
1.284432
 21
2.007754
  0
LINE
  8
LAYER01
 62
     7
 10
1.313077
 20
2.179629
 11
1.284432
 21
2.007754
  0
TEXT
  8
LAYER01
  6
CONTINUOUS
 62
     7
 10
1.393807
 20
2.796879
 40
0.21875
  1
2 1/8"
 50
90.0
  0
POINT
  8
LAYER01
 62
     7
 10
1.861851
 20
4.144219
  0
POINT
  8
LAYER01
 62
     7
 10
2.347407
 20
2.007754
  0
POINT
  8
LAYER01
 62
     7
 10
1.284432
 20
2.007754
  0
ENDBLK
  8
0
  0
BLOCK
  8
0
  2
*D3
 70
    65
 10
0.0
 20
0.0
  0
LINE
  8
LAYER01
 62
     7
 10
2.393298
 20
2.046773
 11
1.904978
 21
1.643971
  0
LINE
  8
LAYER01
 62
     7
 10
1.904978
 20
1.643971
 11
1.765672
 21
1.643971
  0
LINE
  8
LAYER01
 62
     7
 10
2.669837
 20
2.365102
 11
2.888587
 21
2.365102
  0
LINE
  8
LAYER01
 62
     7
 10
2.779212
 20
2.255727
 11
2.779212
 21
2.474477
  0
LINE
  8
LAYER01
 62
     7
 10
2.297325
 20
1.991237
 11
2.393298
 21
2.046773
  0
LINE
  8
LAYER01
 62
     7
 10
2.320523
 20
1.963113
 11
2.393298
 21
2.046773
  0
TEXT
  8
LAYER01
  6
CONTINUOUS
 62
     7
 10
1.391419
 20
1.573658
 40
0.140625
  1
R1/2"
  0
POINT
  8
LAYER01
 62
     7
 10
2.779212
 20
2.365102
  0
POINT
  8
LAYER01
 62
     7
 10
1.904978
 20
1.643971
  0
ENDBLK
  8
0
  0
BLOCK
  8
0
  2
*D4
 70
    65
 10
0.0
 20
0.0
  0
LINE
  8
LAYER01
 62
     7
 10
4.27815
 20
0.922112
 11
3.785712
 21
0.922112
  0
LINE
  8
LAYER01
 62
     7
 10
2.347407
 20
0.922112
 11
2.839844
 21
0.922112
  0
LINE
  8
LAYER01
 62
     7
 10
4.27815
 20
1.077377
 11
4.27815
 21
0.812737
  0
LINE
  8
LAYER01
 62
     7
 10
2.347407
 20
1.920254
 11
2.347407
 21
0.812737
  0
LINE
  8
LAYER01
 62
     7
 10
4.106275
 20
0.950756
 11
4.27815
 21
0.922112
  0
LINE
  8
LAYER01
 62
     7
 10
4.106275
 20
0.893467
 11
4.27815
 21
0.922112
  0
LINE
  8
LAYER01
 62
     7
 10
2.519282
 20
0.950756
 11
2.347407
 21
0.922112
  0
LINE
  8
LAYER01
 62
     7
 10
2.519282
 20
0.893467
 11
2.347407
 21
0.922112
  0
TEXT
  8
LAYER01
  6
CONTINUOUS
 62
     7
 10
2.927344
 20
0.812737
 40
0.21875
  1
1 15/16"
  0
POINT
  8
LAYER01
 62
     7
 10
4.27815
 20
1.164877
  0
POINT
  8
LAYER01
 62
     7
 10
2.347407
 20
2.007754
  0
POINT
  8
LAYER01
 62
     7
 10
2.347407
 20
0.922112
  0
ENDBLK
  8
0
  0
BLOCK
  8
0
  2
*D5
 70
    65
 10
0.0
 20
0.0
  0
ARC
  8
LAYER01
 62
     7
 10
2.347407
 20
2.007754
 40
0.786454
 50
336.416047
 51
20.337902
  0
ARC
  8
LAYER01
 62
     7
 10
2.347407
 20
2.007754
 40
0.786454
 50
60.515344
 51
102.804144
  0
LINE
  8
LAYER01
 62
     7
 10
3.091967
 20
1.865713
 11
3.068172
 21
1.6931
  0
LINE
  8
LAYER01
 62
     7
 10
3.146661
 20
1.848666
 11
3.068172
 21
1.6931
  0
LINE
  8
LAYER01
 62
     7
 10
2.347131
 20
2.765741
 11
2.173113
 21
2.774652
  0
LINE
  8
LAYER01
 62
     7
 10
2.340615
 20
2.822659
 11
2.173113
 21
2.774652
  0
TEXT
  8
LAYER01
  6
CONTINUOUS
 62
     7
 10
2.753929
 20
2.39979
 40
0.21875
  1
126%%d
  0
ENDBLK
  8
0
  0
BLOCK
  8
0
  2
*D6
 70
    65
 10
0.0
 20
0.0
  0
ARC
  8
LAYER01
 62
     7
 10
4.27815
 20
1.164877
 40
1.144693
 50
90.004144
 51
108.264554
  0
ARC
  8
LAYER01
 62
     7
 10
4.27815
 20
1.164877
 40
1.144693
 50
138.742748
 51
156.416047
  0
LINE
  8
LAYER01
 62
     7
 10
4.10883
 20
2.268091
 11
4.278067
 21
2.30957
  0
LINE
  8
LAYER01
 62
     7
 10
4.104525
 20
2.325218
 11
4.278067
 21
2.30957
  0
LINE
  8
LAYER01
 62
     7
 10
3.334782
 20
1.761373
 11
3.229067
 21
1.62286
  0
LINE
  8
LAYER01
 62
     7
 10
3.284147
 20
1.788171
 11
3.229067
 21
1.62286
  0
TEXT
  8
LAYER01
  6
CONTINUOUS
 62
     7
 10
3.50499
 20
2.01323
 40
0.21875
  1
66%%d
  0
ENDBLK
  8
0
  0
BLOCK
  8
0
  2
*D7
 70
    65
 10
0.0
 20
0.0
  0
LINE
  8
LAYER01
 62
     7
 10
1.861851
 20
5.326083
 11
2.650094
 21
5.326083
  0
LINE
  8
LAYER01
 62
     7
 10
4.277878
 20
5.326083
 11
3.489635
 21
5.326083
  0
LINE
  8
LAYER01
 62
     7
 10
1.861851
 20
4.231719
 11
1.861851
 21
5.435458
  0
LINE
  8
LAYER01
 62
     7
 10
4.277878
 20
5.004346
 11
4.277878
 21
5.435458
  0
LINE
  8
LAYER01
 62
     7
 10
2.033726
 20
5.297438
 11
1.861851
 21
5.326083
  0
LINE
  8
LAYER01
 62
     7
 10
2.033726
 20
5.354728
 11
1.861851
 21
5.326083
  0
LINE
  8
LAYER01
 62
     7
 10
4.106003
 20
5.297438
 11
4.277878
 21
5.326083
  0
LINE
  8
LAYER01
 62
     7
 10
4.106003
 20
5.354728
 11
4.277878
 21
5.326083
  0
TEXT
  8
LAYER01
  6
CONTINUOUS
 62
     7
 10
2.737594
 20
5.216708
 40
0.21875
  1
2 7/16"
  0
POINT
  8
LAYER01
 62
     7
 10
1.861851
 20
4.144219
  0
POINT
  8
LAYER01
 62
     7
 10
4.277878
 20
4.916846
  0
POINT
  8
LAYER01
 62
     7
 10
4.277878
 20
5.326083
  0
ENDBLK
  8
0
  0
BLOCK
  8
0
  2
*D8
 70
    65
 10
0.0
 20
0.0
  0
ARC
  8
LAYER01
 62
     7
 10
4.277878
 20
4.916846
 40
0.878748
 50
197.733898
 51
214.536851
  0
ARC
  8
LAYER01
 62
     7
 10
4.277878
 20
4.916846
 40
0.878748
 50
253.517053
 51
270.004144
  0
LINE
  8
LAYER01
 62
     7
 10
3.535298
 20
4.502731
 11
3.440887
 21
4.649183
  0
LINE
  8
LAYER01
 62
     7
 10
3.482699
 20
4.480028
 11
3.440887
 21
4.649183
  0
LINE
  8
LAYER01
 62
     7
 10
4.109689
 20
4.083402
 11
4.277942
 21
4.038098
  0
LINE
  8
LAYER01
 62
     7
 10
4.10409
 20
4.026387
 11
4.277942
 21
4.038098
  0
TEXT
  8
LAYER01
  6
CONTINUOUS
 62
     7
 10
3.61354
 20
4.097732
 40
0.21875
  1
72%%d
  0
ENDBLK
  8
0
  0
ENDSEC
  0
SECTION
  2
ENTITIES
  0
LINE
  8
LAYER01
  6
CONTINUOUS
 62
     7
 10
4.277878
 20
4.916846
 11
4.27815
 21
1.16507
  0
LINE
  8
LAYER01
  6
CONTINUOUS
 62
     7
 10
1.780616
 20
4.501655
 11
2.456478
 21
1.527836
  0
LINE
  8
LAYER01
 62
     7
 10
1.897379
 20
4.117733
 11
2.003667
 21
3.87077
  0
LINE
  8
LAYER01
 62
     7
 10
2.003667
 20
3.87077
 11
1.778587
 21
3.87077
  0
LINE
  8
LAYER01
 62
     7
 10
1.923874
 20
4.010061
 11
1.897379
 21
4.117733
  0
LINE
  8
LAYER01
 62
     7
 10
1.957361
 20
4.024473
 11
1.897379
 21
4.117733
  0
TEXT
  8
LAYER01
  6
CONTINUOUS
 62
     7
 10
1.123691
 20
3.800457
 40
0.140625
  1
1/8" radius
  0
DIMENSION
  8
LAYER01
 62
     7
  2
*D0
 10
5.045698
 20
1.164877
 11
5.045698
 21
3.040862
 13
4.277878
 23
4.916846
 14
4.27815
 24
1.164877
 50
90.0
 53
90.0
  0
DIMENSION
  8
LAYER01
 62
     7
  2
*D1
 10
1.283731
 20
4.144219
 11
1.283731
 21
5.649079
 13
4.277878
 23
4.916846
 14
1.861851
 24
4.144219
 50
90.0
 53
90.0
  0
DIMENSION
  8
LAYER01
 62
     7
  2
*D2
 10
1.284432
 20
2.007754
 11
1.284432
 21
3.075986
 13
1.861851
 23
4.144219
 14
2.347407
 24
2.007754
 50
90.0
 53
90.0
  0
ARC
  8
LAYER01
  6
CONTINUOUS
 62
     7
 10
2.779212
 20
2.365102
 40
0.500263
 50
192.804144
 51
246.416047
  0
LINE
  8
LAYER01
  6
CONTINUOUS
 62
     7
 10
1.929643
 20
2.190131
 11
4.27815
 21
1.164877
  0
DIMENSION
  8
LAYER01
 62
     7
  2
*D3
 10
2.779212
 20
2.365102
 11
1.630653
 21
1.643971
 70
     4
 15
2.393298
 25
2.046773
 40
0.633014
  0
DIMENSION
  8
LAYER01
 62
     7
  2
*D4
 10
2.347407
 20
0.922112
 11
3.312778
 21
0.922112
 13
4.27815
 23
1.164877
 14
2.347407
 24
2.007754
  0
DIMENSION
  8
LAYER01
 62
     7
  2
*D5
 10
0.0
 20
0.0
 11
2.953292
 21
2.509165
 70
     2
 16
2.842128
 26
2.619114
  0
DIMENSION
  8
LAYER01
 62
     7
  2
*D6
 10
0.0
 20
0.0
 11
3.651189
 21
2.122605
 70
     2
 16
3.741286
 26
2.175867
  0
LINE
  8
LAYER01
  6
CONTINUOUS
 62
     7
 10
2.095487
 20
3.943822
 11
2.545147
 21
4.081416
  0
LINE
  8
LAYER01
  6
CONTINUOUS
 62
     7
 10
2.098413
 20
3.934259
 11
2.548074
 21
4.071853
  0
LINE
  8
LAYER01
  6
CONTINUOUS
 62
     7
 10
2.095487
 20
3.943822
 11
2.098413
 21
3.934259
  0
LINE
  8
LAYER01
  6
CONTINUOUS
 62
     7
 10
2.545147
 20
4.081416
 11
2.548074
 21
4.071853
  0
SOLID
  8
LAYER01
  6
CONTINUOUS
 62
     7
 10
2.095487
 20
3.943822
 11
2.545147
 21
4.081416
 12
2.098413
 22
3.934259
 13
2.548074
 23
4.071853
  0
LINE
  8
LAYER01
  6
CONTINUOUS
 62
     7
 10
1.298833
 20
3.964169
 11
4.277878
 21
4.916846
  0
DIMENSION
  8
LAYER01
 62
     7
  2
*D7
 10
4.277878
 20
5.326083
 11
3.069865
 21
5.326083
 13
1.861851
 23
4.144219
 14
4.277878
 24
4.916846
  0
ARC
  8
LAYER01
  6
CONTINUOUS
 62
     7
 10
2.009236
 20
4.060046
 40
0.125066
 50
107.733898
 51
192.804144
  0
LINE
  8
LAYER01
  6
CONTINUOUS
 62
     7
 10
3.348864
 20
4.299581
 11
4.023355
 21
4.505972
  0
DIMENSION
  8
LAYER01
 62
     7
  2
*D8
 10
0.0
 20
0.0
 11
3.759739
 21
4.207107
 70
     2
 16
3.766614
 26
4.202138
  0
TEXT
  8
LAYER01
  6
CONTINUOUS
 62
     7
 10
2.655392
 20
3.982707
 40
0.25
  1
Grain
 50
14.79
  0
TEXT
  8
LAYER01
  6
CONTINUOUS
 62
     7
 10
5.577594
 20
4.455422
 40
0.3125
  1
Cherokee-D fin pattern from Estes
  0
TEXT
  8
LAYER01
  6
CONTINUOUS
 62
     7
 10
5.577594
 20
4.142922
 40
0.3125
  1
Orignial has three fins, 18" BT-55
  0
TEXT
  8
LAYER01
  6
CONTINUOUS
 62
     7
 10
5.577594
 20
3.830422
 40
0.3125
  1
and BNC-55AD nose cone.
  0
TEXT
  8
LAYER01
  6
CONTINUOUS
 62
     7
 10
5.577594
 20
3.517922
 40
0.3125
  1
Drawn by Norman Heyen
  0
TEXT
  8
LAYER01
  6
CONTINUOUS
 62
     7
 10
5.577594
 20
3.205422
 40
0.3125
  1
25 July 95
  0
ENDSEC
  0
EOF
