  0
SECTION
  2
HEADER
  9
$ACADVER
  1
AC1004
  9
$INSBASE
 10
-7.330837
 20
-17.842579
  9
$EXTMIN
 10
-7.630837
 20
-18.267579
  9
$EXTMAX
 10
26.369163
 20
3.732421
  9
$LIMMIN
 10
-7.630837
 20
-18.267579
  9
$LIMMAX
 10
26.369163
 20
3.732421
  9
$VIEWCTR
 10
6.0
 20
4.5
  9
$VIEWSIZE
 40
9.0
  9
$SNAPMODE
 70
     0
  9
$SNAPUNIT
 10
-7.133987
 20
-17.645729
  9
$SNAPBASE
 10
0.0
 20
0.0
  9
$SNAPANG
 50
0.0
  9
$SNAPSTYLE
 70
     0
  9
$SNAPISOPAIR
 70
     0
  9
$GRIDMODE
 70
     1
  9
$GRIDUNIT
 10
-6.937137
 20
-17.448878
  9
$ORTHOMODE
 70
     0
  9
$REGENMODE
 70
     1
  9
$FILLMODE
 70
     1
  9
$QTEXTMODE
 70
     0
  9
$DRAGMODE
 70
     2
  9
$LTSCALE
 40
0.3
  9
$OSMODE
 70
     1
  9
$ATTMODE
 70
     1
  9
$TEXTSIZE
 40
0.2
  9
$TRACEWID
 40
0.05
  9
$TEXTSTYLE
  7
STANDARD
  9
$CLAYER
  8
LAYER01
  9
$CELTYPE
  6
CONTINUOUS
  9
$CECOLOR
 62
     7
  9
$DIMSCALE
 40
1.0
  9
$DIMASZ
 40
0.18
  9
$DIMEXO
 40
0.0625
  9
$DIMDLI
 40
0.38
  9
$DIMRND
 40
0.0
  9
$DIMDLE
 40
0.0
  9
$DIMEXE
 40
0.18
  9
$DIMTP
 40
0.0
  9
$DIMTM
 40
0.0
  9
$DIMTXT
 40
0.18
  9
$DIMCEN
 40
0.09
  9
$DIMTSZ
 40
0.0
  9
$DIMTOL
 70
     0
  9
$DIMLIM
 70
     0
  9
$DIMTIH
 70
     1
  9
$DIMTOH
 70
     1
  9
$DIMSE1
 70
     0
  9
$DIMSE2
 70
     0
  9
$DIMTAD
 70
     0
  9
$DIMZIN
 70
     0
  9
$DIMBLK
  1

  9
$DIMASO
 70
     1
  9
$DIMSHO
 70
     1
  9
$DIMPOST
  1

  9
$DIMAPOST
  1

  9
$DIMALT
 70
     0
  9
$DIMALTD
 70
     2
  9
$DIMALTF
 40
25.4
  9
$DIMLFAC
 40
1.0
  9
$LUNITS
 70
     2
  9
$LUPREC
 70
     4
  9
$AXISMODE
 70
     0
  9
$AXISUNIT
 10
0.0
 20
0.0
  9
$SKETCHINC
 40
0.1
  9
$FILLETRAD
 40
0.5
  9
$AUNITS
 70
     0
  9
$AUPREC
 70
     0
  9
$MENU
  1
acad
  9
$ELEVATION
 40
0.0
  9
$THICKNESS
 40
0.0
  9
$VIEWDIR
 10
0.0
 20
0.0
 30
1.0
  9
$LIMCHECK
 70
     0
  9
$BLIPMODE
 70
     1
  9
$CHAMFERA
 40
0.5
  9
$CHAMFERB
 40
0.5
  9
$FASTZOOM
 70
     1
  9
$SKPOLY
 70
     0
  9
$TDCREATE
 40
0.0
  9
$TDUPDATE
 40
0.0
  9
$TDINDWG
 40
0.0
  9
$TDUSRTIMER
 40
0.0
  9
$USRTIMER
 70
     1
  9
$ANGBASE
 50
0.0
  9
$ANGDIR
 70
     0
  9
$PDMODE
 70
     0
  9
$PDSIZE
 40
0.0
  9
$PLINEWID
 40
0.0
  9
$COORDS
 70
     2
  9
$SPLFRAME
 70
     1
  9
$SPLINESEGS
 70
    10
  9
$ATTDIA
 70
     0
  9
$ATTREQ
 70
     1
  9
$USERI1
 70
     0
  9
$USERI2
 70
     0
  9
$USERI3
 70
     0
  9
$USERI4
 70
     0
  9
$USERI5
 70
     0
  9
$USERR1
 40
0.0
  9
$USERR2
 40
0.0
  9
$USERR3
 40
0.0
  9
$USERR4
 40
0.0
  9
$USERR5
 40
0.0
  0
ENDSEC
  0
SECTION
  2
TABLES
  0
TABLE
  2
LTYPE
 70
    11
  0
LTYPE
  2
CONTINUOUS
 70
     0
  3
Solid line
 72
    65
 73
     0
 40
0.0
  0
LTYPE
  2
DASHED
 70
     0
  3
__ __ __ __ __ __ __ __ __ __ __ __ __ __ __
 72
    65
 73
     2
 40
0.75
 49
0.5
 49
-0.25
  0
LTYPE
  2
HIDDEN
 70
     0
  3
_ _ _ _ _ _ _ _ _ _ _ _ _ _ _ _ _ _ _ _ _ _ 
 72
    65
 73
     2
 40
0.25
 49
0.125
 49
-0.125
  0
LTYPE
  2
CENTER
 70
     0
  3
____ _ ____ _ ____ _ ____ _ ____ _ ____ _ __
 72
    65
 73
     4
 40
2.0
 49
1.25
 49
-0.25
 49
0.25
 49
-0.25
  0
LTYPE
  2
PHANTOM
 70
     0
  3
_____ _ _ _____ _ _ _____ _ _ _____ _ _ ____
 72
    65
 73
     6
 40
2.5
 49
1.25
 49
-0.25
 49
0.25
 49
-0.25
 49
0.25
 49
-0.25
  0
LTYPE
  2
DOT
 70
     0
  3
............................................
 72
    65
 73
     2
 40
0.25
 49
0.0
 49
-0.25
  0
LTYPE
  2
DASHDOT
 70
     0
  3
__ . __ . __ . __ . __ . __ . __ . __ . __ .
 72
    65
 73
     4
 40
1.0
 49
0.5
 49
-0.25
 49
0.0
 49
-0.25
  0
LTYPE
  2
BORDER
 70
     0
  3
__ __ . __ __ . __ __ . __ __ . __ __ . __ _
 72
    65
 73
     6
 40
1.75
 49
0.5
 49
-0.25
 49
0.5
 49
-0.25
 49
0.0
 49
-0.25
  0
LTYPE
  2
DIVIDE
 70
     0
  3
__ . . __ . . __ . . __ . . __ . . __ . . __
 72
    65
 73
     6
 40
1.25
 49
0.5
 49
-0.25
 49
0.0
 49
-0.25
 49
0.0
 49
-0.25
  0
LTYPE
  2
DOTS
 70
     0
  3
close                                       
 72
    65
 73
     2
 40
0.1
 49
0.05
 49
-0.05
  0
LTYPE
  2
CLOSE
 70
     0
  3
                                            
 72
    65
 73
     0
 40
0.0
  0
ENDTAB
  0
TABLE
  2
LAYER
 70
    11
  0
LAYER
  2
0
 70
     0
 62
     7
  6
CONTINUOUS
  0
LAYER
  2
LAYER01
 70
     0
 62
     7
  6
CONTINUOUS
  0
LAYER
  2
LAYER02
 70
     0
 62
     7
  6
CONTINUOUS
  0
LAYER
  2
LAYER03
 70
     0
 62
     7
  6
CONTINUOUS
  0
LAYER
  2
LAYER04
 70
     0
 62
     7
  6
CONTINUOUS
  0
LAYER
  2
LAYER05
 70
     0
 62
     7
  6
CONTINUOUS
  0
LAYER
  2
LAYER06
 70
     0
 62
     7
  6
CONTINUOUS
  0
LAYER
  2
LAYER07
 70
     0
 62
     7
  6
CONTINUOUS
  0
LAYER
  2
LAYER08
 70
     0
 62
     7
  6
CONTINUOUS
  0
LAYER
  2
LAYER09
 70
     0
 62
     7
  6
CONTINUOUS
  0
LAYER
  2
LAYER10
 70
     0
 62
     7
  6
CONTINUOUS
  0
ENDTAB
  0
TABLE
  2
STYLE
 70
     1
  0
STYLE
  2
STANDARD
 70
     0
 40
0.0
 41
1.0
 50
0.0
 71
     0
 42
0.0
  3
txt
  4

  0
ENDTAB
  0
TABLE
  2
VIEW
 70
     0
  0
ENDTAB
  0
ENDSEC
  0
SECTION
  2
BLOCKS
  0
BLOCK
  8
0
  2
*D0
 70
    65
 10
0.0
 20
0.0
  0
LINE
  8
LAYER01
 62
     7
 10
-3.769504
 20
-6.723107
 11
14.230496
 21
-6.723107
  0
LINE
  8
LAYER01
 62
     7
 10
-3.769504
 20
-9.659597
 11
-3.769504
 21
-6.621545
  0
LINE
  8
LAYER01
 62
     7
 10
14.230496
 20
-9.659597
 11
14.230496
 21
-6.621545
  0
LINE
  8
LAYER01
 62
     7
 10
-3.613254
 20
-6.749148
 11
-3.769504
 21
-6.723107
  0
LINE
  8
LAYER01
 62
     7
 10
-3.613254
 20
-6.697067
 11
-3.769504
 21
-6.723107
  0
LINE
  8
LAYER01
 62
     7
 10
14.074246
 20
-6.749148
 11
14.230496
 21
-6.723107
  0
LINE
  8
LAYER01
 62
     7
 10
14.074246
 20
-6.697067
 11
14.230496
 21
-6.723107
  0
TEXT
  8
LAYER01
  6
CONTINUOUS
 62
     7
 10
5.00682
 20
-6.621545
 40
0.203125
  1
18"
  0
POINT
  8
LAYER01
 62
     7
 10
-3.769504
 20
-9.740847
  0
POINT
  8
LAYER01
 62
     7
 10
14.230496
 20
-9.740847
  0
POINT
  8
LAYER01
 62
     7
 10
14.230496
 20
-6.723107
  0
ENDBLK
  8
0
  0
BLOCK
  8
0
  2
*D1
 70
    65
 10
0.0
 20
0.0
  0
LINE
  8
LAYER01
 62
     7
 10
-3.769504
 20
-5.84618
 11
19.730496
 21
-5.84618
  0
LINE
  8
LAYER01
 62
     7
 10
-3.769504
 20
-9.659597
 11
-3.769504
 21
-5.744618
  0
LINE
  8
LAYER01
 62
     7
 10
19.730496
 20
-10.322097
 11
19.730496
 21
-5.744618
  0
LINE
  8
LAYER01
 62
     7
 10
-3.613254
 20
-5.872221
 11
-3.769504
 21
-5.84618
  0
LINE
  8
LAYER01
 62
     7
 10
-3.613254
 20
-5.82014
 11
-3.769504
 21
-5.84618
  0
LINE
  8
LAYER01
 62
     7
 10
19.574246
 20
-5.872221
 11
19.730496
 21
-5.84618
  0
LINE
  8
LAYER01
 62
     7
 10
19.574246
 20
-5.82014
 11
19.730496
 21
-5.84618
  0
TEXT
  8
LAYER01
  6
CONTINUOUS
 62
     7
 10
7.508292
 20
-5.744618
 40
0.203125
  1
23 1/2"
  0
POINT
  8
LAYER01
 62
     7
 10
-3.769504
 20
-9.740847
  0
POINT
  8
LAYER01
 62
     7
 10
19.730496
 20
-10.403347
  0
POINT
  8
LAYER01
 62
     7
 10
19.730496
 20
-5.84618
  0
ENDBLK
  8
0
  0
BLOCK
  8
0
  2
*D2
 70
    65
 10
0.0
 20
0.0
  0
LINE
  8
LAYER01
 62
     7
 10
7.897043
 20
-3.330492
 11
13.769687
 21
-3.330492
  0
LINE
  8
LAYER01
 62
     7
 10
7.897043
 20
-2.253258
 11
7.897043
 21
-3.432055
  0
LINE
  8
LAYER01
 62
     7
 10
13.769687
 20
-2.427758
 11
13.769687
 21
-3.432055
  0
LINE
  8
LAYER01
 62
     7
 10
8.053293
 20
-3.356533
 11
7.897043
 21
-3.330492
  0
LINE
  8
LAYER01
 62
     7
 10
8.053293
 20
-3.304451
 11
7.897043
 21
-3.330492
  0
LINE
  8
LAYER01
 62
     7
 10
13.613437
 20
-3.356533
 11
13.769687
 21
-3.330492
  0
LINE
  8
LAYER01
 62
     7
 10
13.613437
 20
-3.304451
 11
13.769687
 21
-3.330492
  0
TEXT
  8
LAYER01
  6
CONTINUOUS
 62
     7
 10
10.43572
 20
-3.22893
 40
0.203125
  1
5 7/8"
  0
POINT
  8
LAYER01
 62
     7
 10
7.897043
 20
-2.172008
  0
POINT
  8
LAYER01
 62
     7
 10
13.769687
 20
-2.346508
  0
POINT
  8
LAYER01
 62
     7
 10
13.769687
 20
-3.330492
  0
ENDBLK
  8
0
  0
BLOCK
  8
0
  2
*D3
 70
    65
 10
0.0
 20
0.0
  0
LINE
  8
LAYER01
 62
     7
 10
12.14556
 20
-2.86844
 11
8.394687
 21
-2.86844
  0
LINE
  8
LAYER01
 62
     7
 10
12.14556
 20
-2.427758
 11
12.14556
 21
-2.970002
  0
LINE
  8
LAYER01
 62
     7
 10
8.394687
 20
-2.427635
 11
8.394687
 21
-2.970002
  0
LINE
  8
LAYER01
 62
     7
 10
11.98931
 20
-2.842399
 11
12.14556
 21
-2.86844
  0
LINE
  8
LAYER01
 62
     7
 10
11.98931
 20
-2.89448
 11
12.14556
 21
-2.86844
  0
LINE
  8
LAYER01
 62
     7
 10
8.550937
 20
-2.842399
 11
8.394687
 21
-2.86844
  0
LINE
  8
LAYER01
 62
     7
 10
8.550937
 20
-2.89448
 11
8.394687
 21
-2.86844
  0
TEXT
  8
LAYER01
  6
CONTINUOUS
 62
     7
 10
9.872478
 20
-2.766877
 40
0.203125
  1
3 3/4"
  0
POINT
  8
LAYER01
 62
     7
 10
12.14556
 20
-2.346508
  0
POINT
  8
LAYER01
 62
     7
 10
8.394687
 20
-2.346385
  0
POINT
  8
LAYER01
 62
     7
 10
8.394687
 20
-2.86844
  0
ENDBLK
  8
0
  0
BLOCK
  8
LAYER01
  2
CHEROKEE-G5
 70
     0
 10
0.0
 20
0.0
  0
LINE
  8
LAYER01
  6
CONTINUOUS
 62
     7
 10
9.091291
 20
0.095605
 11
9.07584
 21
0.048052
  0
LINE
  8
LAYER01
  6
CONTINUOUS
 62
     7
 10
8.782274
 20
-0.855451
 11
8.766823
 21
-0.903004
  0
LINE
  8
LAYER01
  6
CONTINUOUS
 62
     7
 10
9.718809
 20
-1.209163
 11
9.733331
 21
-1.164468
  0
LINE
  8
LAYER01
  6
CONTINUOUS
 62
     7
 10
10.026897
 20
-0.260965
 11
10.042348
 21
-0.213412
  0
LINE
  8
LAYER01
  6
CONTINUOUS
 62
     7
 10
10.335914
 20
0.690092
 11
10.351365
 21
0.737645
  0
LINE
  8
LAYER01
  6
CONTINUOUS
 62
     7
 10
11.302422
 20
0.428627
 11
11.286971
 21
0.381074
  0
LINE
  8
LAYER01
  6
CONTINUOUS
 62
     7
 10
10.993405
 20
-0.522429
 11
10.977954
 21
-0.569982
  0
LINE
  8
LAYER01
  6
CONTINUOUS
 62
     7
 10
11.929012
 20
-0.878999
 11
11.944463
 21
-0.831446
  0
LINE
  8
LAYER01
  6
CONTINUOUS
 62
     7
 10
11.077678
 20
0.869644
 11
10.982572
 21
0.900546
  0
LINE
  8
LAYER01
  6
CONTINUOUS
 62
     7
 10
9.722499
 20
0.258506
 11
9.817604
 21
0.227604
  0
LINE
  8
LAYER01
  6
CONTINUOUS
 62
     7
 10
10.673555
 20
-0.050511
 11
10.768661
 21
-0.081413
  0
LINE
  8
LAYER01
  6
CONTINUOUS
 62
     7
 10
11.624612
 20
-0.359528
 11
11.719717
 21
-0.39043
  0
LINE
  8
LAYER01
  6
CONTINUOUS
 62
     7
 10
10.459644
 20
-1.03247
 11
10.364538
 21
-1.001569
  0
LINE
  8
LAYER01
  6
CONTINUOUS
 62
     7
 10
9.508587
 20
-0.723453
 11
9.413481
 21
-0.692552
  0
LINE
  8
LAYER01
  6
CONTINUOUS
 62
     7
 10
11.961951
 20
-1.021335
 11
11.945753
 21
-0.989544
  0
LINE
  8
LAYER01
  6
CONTINUOUS
 62
     7
 10
11.753118
 20
-0.611478
 11
11.721021
 21
-0.548484
  0
LINE
  8
LAYER01
  6
CONTINUOUS
 62
     7
 10
11.62473
 20
-0.359501
 11
11.592633
 21
-0.296507
  0
LINE
  8
LAYER01
  6
CONTINUOUS
 62
     7
 10
11.528438
 20
-0.170519
 11
11.303713
 21
0.270529
  0
LINE
  8
LAYER01
  6
CONTINUOUS
 62
     7
 10
11.111079
 20
0.648595
 11
11.078982
 21
0.71159
  0
LINE
  8
LAYER01
  6
CONTINUOUS
 62
     7
 10
10.98269
 20
0.900572
 11
10.950593
 21
0.963566
  0
LINE
  8
LAYER01
  6
CONTINUOUS
 62
     7
 10
10.886399
 20
1.089555
 11
10.79757
 21
1.263892
  0
LINE
  8
LAYER01
  6
CONTINUOUS
 62
     7
 10
10.12792
 20
1.020604
 11
10.160017
 21
0.95761
  0
LINE
  8
LAYER01
  6
CONTINUOUS
 62
     7
 10
10.352651
 20
0.579544
 11
10.577377
 21
0.138495
  0
LINE
  8
LAYER01
  6
CONTINUOUS
 62
     7
 10
10.641571
 20
0.012507
 11
10.673668
 21
-0.050487
  0
LINE
  8
LAYER01
  6
CONTINUOUS
 62
     7
 10
10.769959
 20
-0.23947
 11
10.802056
 21
-0.302464
  0
LINE
  8
LAYER01
  6
CONTINUOUS
 62
     7
 10
10.994691
 20
-0.68053
 11
11.219416
 21
-1.121578
  0
LINE
  8
LAYER01
  6
CONTINUOUS
 62
     7
 10
10.470268
 20
-1.208841
 11
10.460937
 21
-1.190529
  0
LINE
  8
LAYER01
  6
CONTINUOUS
 62
     7
 10
10.364646
 20
-1.001546
 11
10.332549
 21
-0.938552
  0
LINE
  8
LAYER01
  6
CONTINUOUS
 62
     7
 10
10.268354
 20
-0.812564
 11
10.043629
 21
-0.371516
  0
LINE
  8
LAYER01
  6
CONTINUOUS
 62
     7
 10
9.850995
 20
0.006551
 11
9.818898
 21
0.069545
  0
LINE
  8
LAYER01
  6
CONTINUOUS
 62
     7
 10
9.722606
 20
0.258527
 11
9.690509
 21
0.321521
  0
LINE
  8
LAYER01
  6
CONTINUOUS
 62
     7
 10
9.626315
 20
0.44751
 11
9.401589
 21
0.888558
  0
LINE
  8
LAYER01
  6
CONTINUOUS
 62
     7
 10
9.092567
 20
-0.062501
 11
9.317293
 21
-0.50355
  0
LINE
  8
LAYER01
  6
CONTINUOUS
 62
     7
 10
9.381487
 20
-0.629538
 11
9.413584
 21
-0.692532
  0
LINE
  8
LAYER01
  6
CONTINUOUS
 62
     7
 10
9.509875
 20
-0.881515
 11
9.541972
 21
-0.944509
  0
LINE
  8
LAYER01
  6
CONTINUOUS
 62
     7
 10
8.883053
 20
-1.208857
 11
8.783545
 21
-1.013561
  0
LINE
  8
LAYER01
  6
CONTINUOUS
 62
     7
 10
8.590911
 20
-0.635494
 11
8.57597
 21
-0.606171
  0
LINE
  8
LAYER01
  6
CONTINUOUS
 62
     7
 10
11.96119
 20
-0.941943
 11
11.929088
 21
-0.87894
  0
LINE
  8
LAYER01
  6
CONTINUOUS
 62
     7
 10
11.864885
 20
-0.752934
 11
11.832783
 21
-0.68993
  0
LINE
  8
LAYER01
  6
CONTINUOUS
 62
     7
 10
11.31915
 20
0.318131
 11
11.287049
 21
0.381134
  0
LINE
  8
LAYER01
  6
CONTINUOUS
 62
     7
 10
11.222845
 20
0.50714
 11
11.190744
 21
0.570143
  0
LINE
  8
LAYER01
  6
CONTINUOUS
 62
     7
 10
10.239682
 20
0.879157
 11
10.271784
 21
0.816154
  0
LINE
  8
LAYER01
  6
CONTINUOUS
 62
     7
 10
10.335987
 20
0.690148
 11
10.368089
 21
0.627145
  0
LINE
  8
LAYER01
  6
CONTINUOUS
 62
     7
 10
10.881721
 20
-0.380916
 11
10.913823
 21
-0.443919
  0
LINE
  8
LAYER01
  6
CONTINUOUS
 62
     7
 10
10.978026
 20
-0.569925
 11
11.010128
 21
-0.632928
  0
LINE
  8
LAYER01
  6
CONTINUOUS
 62
     7
 10
10.059066
 20
-0.323914
 11
10.026965
 21
-0.260911
  0
LINE
  8
LAYER01
  6
CONTINUOUS
 62
     7
 10
9.962761
 20
-0.134905
 11
9.93066
 21
-0.071902
  0
LINE
  8
LAYER01
  6
CONTINUOUS
 62
     7
 10
9.417027
 20
0.936159
 11
9.413237
 21
0.943598
  0
LINE
  8
LAYER01
  6
CONTINUOUS
 62
     7
 10
8.979598
 20
0.237112
 11
9.0117
 21
0.174109
  0
LINE
  8
LAYER01
  6
CONTINUOUS
 62
     7
 10
9.075903
 20
0.048103
 11
9.108005
 21
-0.0149
  0
LINE
  8
LAYER01
  6
CONTINUOUS
 62
     7
 10
9.621637
 20
-1.022961
 11
9.653739
 21
-1.085964
  0
LINE
  8
LAYER01
  6
CONTINUOUS
 62
     7
 10
8.798982
 20
-0.965959
 11
8.766881
 21
-0.902956
  0
LINE
  8
LAYER01
  6
CONTINUOUS
 62
     7
 10
8.702677
 20
-0.77695
 11
8.670576
 21
-0.713947
  0
LINE
  8
LAYER01
  6
CONTINUOUS
 62
     7
 10
11.974111
 20
-0.578237
 11
11.942009
 21
-0.515234
  0
LINE
  8
LAYER01
  6
CONTINUOUS
 62
     7
 10
11.332071
 20
0.681836
 11
11.29997
 21
0.744839
  0
LINE
  8
LAYER01
  6
CONTINUOUS
 62
     7
 10
10.348908
 20
1.053854
 11
10.38101
 21
0.990851
  0
LINE
  8
LAYER01
  6
CONTINUOUS
 62
     7
 10
10.990948
 20
-0.20622
 11
11.023049
 21
-0.269223
  0
LINE
  8
LAYER01
  6
CONTINUOUS
 62
     7
 10
10.70821
 20
-1.208866
 11
10.681925
 21
-1.157279
  0
LINE
  8
LAYER01
  6
CONTINUOUS
 62
     7
 10
10.071987
 20
0.039791
 11
10.039886
 21
0.102795
  0
LINE
  8
LAYER01
  6
CONTINUOUS
 62
     7
 10
9.088824
 20
0.411809
 11
9.120926
 21
0.348806
  0
LINE
  8
LAYER01
  6
CONTINUOUS
 62
     7
 10
9.730863
 20
-0.848265
 11
9.762965
 21
-0.911268
  0
LINE
  8
LAYER01
  6
CONTINUOUS
 62
     7
 10
8.811903
 20
-0.602253
 11
8.779802
 21
-0.53925
  0
LINE
  8
LAYER01
  6
CONTINUOUS
 62
     7
 10
11.410553
 20
0.761505
 11
11.378451
 21
0.824508
  0
LINE
  8
LAYER01
  6
CONTINUOUS
 62
     7
 10
10.427389
 20
1.133522
 11
10.459491
 21
1.070519
  0
LINE
  8
LAYER01
  6
CONTINUOUS
 62
     7
 10
11.069429
 20
-0.126551
 11
11.101531
 21
-0.189554
  0
LINE
  8
LAYER01
  6
CONTINUOUS
 62
     7
 10
10.792508
 20
-1.140614
 11
10.760407
 21
-1.07761
  0
LINE
  8
LAYER01
  6
CONTINUOUS
 62
     7
 10
10.150469
 20
0.11946
 11
10.118367
 21
0.182463
  0
LINE
  8
LAYER01
  6
CONTINUOUS
 62
     7
 10
9.167305
 20
0.491477
 11
9.199407
 21
0.428474
  0
LINE
  8
LAYER01
  6
CONTINUOUS
 62
     7
 10
9.809345
 20
-0.768596
 11
9.841447
 21
-0.831599
  0
LINE
  8
LAYER01
  6
CONTINUOUS
 62
     7
 10
8.890385
 20
-0.522585
 11
8.858283
 21
-0.459582
  0
LINE
  8
LAYER01
  6
CONTINUOUS
 62
     7
 10
11.911263
 20
-0.61026
 11
11.879162
 21
-0.547256
  0
LINE
  8
LAYER01
  6
CONTINUOUS
 62
     7
 10
11.269224
 20
0.649814
 11
11.237122
 21
0.712817
  0
LINE
  8
LAYER01
  6
CONTINUOUS
 62
     7
 10
10.28606
 20
1.021831
 11
10.318162
 21
0.958828
  0
LINE
  8
LAYER01
  6
CONTINUOUS
 62
     7
 10
10.9281
 20
-0.238242
 11
10.960202
 21
-0.301245
  0
LINE
  8
LAYER01
  6
CONTINUOUS
 62
     7
 10
10.629042
 20
-1.208857
 11
10.619078
 21
-1.189301
  0
LINE
  8
LAYER01
  6
CONTINUOUS
 62
     7
 10
10.00914
 20
0.007769
 11
9.977038
 21
0.070772
  0
LINE
  8
LAYER01
  6
CONTINUOUS
 62
     7
 10
9.025976
 20
0.379786
 11
9.058078
 21
0.316783
  0
LINE
  8
LAYER01
  6
CONTINUOUS
 62
     7
 10
9.668016
 20
-0.880287
 11
9.700118
 21
-0.94329
  0
LINE
  8
LAYER01
  6
CONTINUOUS
 62
     7
 10
8.749056
 20
-0.634276
 11
8.716954
 21
-0.571273
  0
LINE
  8
LAYER01
  6
CONTINUOUS
 62
     7
 10
11.848242
 20
-0.642371
 11
11.784039
 21
-0.516365
  0
LINE
  8
LAYER01
  6
CONTINUOUS
 62
     7
 10
11.206202
 20
0.617703
 11
11.141999
 21
0.743709
  0
LINE
  8
LAYER01
  6
CONTINUOUS
 62
     7
 10
10.190937
 20
1.052723
 11
10.255141
 21
0.926717
  0
LINE
  8
LAYER01
  6
CONTINUOUS
 62
     7
 10
10.832977
 20
-0.20735
 11
10.89718
 21
-0.333356
  0
LINE
  8
LAYER01
  6
CONTINUOUS
 62
     7
 10
10.549699
 20
-1.208936
 11
10.523954
 21
-1.158409
  0
LINE
  8
LAYER01
  6
CONTINUOUS
 62
     7
 10
9.946118
 20
-0.024342
 11
9.881915
 21
0.101664
  0
LINE
  8
LAYER01
  6
CONTINUOUS
 62
     7
 10
8.978803
 20
0.316572
 11
8.995056
 21
0.284672
  0
LINE
  8
LAYER01
  6
CONTINUOUS
 62
     7
 10
9.572893
 20
-0.849395
 11
9.637096
 21
-0.975401
  0
LINE
  8
LAYER01
  6
CONTINUOUS
 62
     7
 10
8.686034
 20
-0.666387
 11
8.621831
 21
-0.540381
  0
LINE
  8
LAYER01
  6
CONTINUOUS
 62
     7
 10
11.521136
 20
0.77817
 11
11.456933
 21
0.904176
  0
LINE
  8
LAYER01
  6
CONTINUOUS
 62
     7
 10
10.513018
 20
1.199163
 11
10.570075
 21
1.087184
  0
LINE
  8
LAYER01
  6
CONTINUOUS
 62
     7
 10
11.147911
 20
-0.046883
 11
11.212114
 21
-0.172889
  0
LINE
  8
LAYER01
  6
CONTINUOUS
 62
     7
 10
10.903092
 20
-1.123949
 11
10.838888
 21
-0.997943
  0
LINE
  8
LAYER01
  6
CONTINUOUS
 62
     7
 10
10.261052
 20
0.136125
 11
10.196849
 21
0.262131
  0
LINE
  8
LAYER01
  6
CONTINUOUS
 62
     7
 10
9.245787
 20
0.571145
 11
9.30999
 21
0.445139
  0
LINE
  8
LAYER01
  6
CONTINUOUS
 62
     7
 10
9.887827
 20
-0.688928
 11
9.95203
 21
-0.814934
  0
LINE
  8
LAYER01
  6
CONTINUOUS
 62
     7
 10
9.000968
 20
-0.50592
 11
8.936765
 21
-0.379914
  0
LINE
  8
LAYER01
  6
CONTINUOUS
 62
     7
 10
11.76976
 20
-0.722039
 11
11.641354
 21
-0.470027
  0
LINE
  8
LAYER01
  6
CONTINUOUS
 62
     7
 10
11.127721
 20
0.538034
 11
10.999314
 21
0.790047
  0
LINE
  8
LAYER01
  6
CONTINUOUS
 62
     7
 10
10.050775
 20
1.09411
 11
10.176659
 21
0.847049
  0
LINE
  8
LAYER01
  6
CONTINUOUS
 62
     7
 10
10.690292
 20
-0.161013
 11
10.818699
 21
-0.413025
  0
LINE
  8
LAYER01
  6
CONTINUOUS
 62
     7
 10
10.430596
 20
-1.208881
 11
10.38127
 21
-1.112072
  0
LINE
  8
LAYER01
  6
CONTINUOUS
 62
     7
 10
9.867637
 20
-0.104011
 11
9.73923
 21
0.148002
  0
LINE
  8
LAYER01
  6
CONTINUOUS
 62
     7
 10
9.430208
 20
-0.803057
 11
9.558615
 21
-1.05507
  0
LINE
  8
LAYER01
  6
CONTINUOUS
 62
     7
 10
8.607553
 20
-0.746055
 11
8.557675
 21
-0.648166
  0
LINE
  8
LAYER01
  6
CONTINUOUS
 62
     7
 10
11.706739
 20
-0.75415
 11
11.578332
 21
-0.502138
  0
LINE
  8
LAYER01
  6
CONTINUOUS
 62
     7
 10
11.064699
 20
0.505923
 11
10.936293
 21
0.757936
  0
LINE
  8
LAYER01
  6
CONTINUOUS
 62
     7
 10
9.985231
 20
1.06695
 11
10.113637
 21
0.814938
  0
LINE
  8
LAYER01
  6
CONTINUOUS
 62
     7
 10
10.62727
 20
-0.193124
 11
10.755677
 21
-0.445136
  0
LINE
  8
LAYER01
  6
CONTINUOUS
 62
     7
 10
10.351165
 20
-1.208786
 11
10.318248
 21
-1.144183
  0
LINE
  8
LAYER01
  6
CONTINUOUS
 62
     7
 10
9.804615
 20
-0.136122
 11
9.676209
 21
0.115891
  0
LINE
  8
LAYER01
  6
CONTINUOUS
 62
     7
 10
9.367186
 20
-0.835169
 11
9.495593
 21
-1.087181
  0
LINE
  8
LAYER01
  6
CONTINUOUS
 62
     7
 10
8.544531
 20
-0.778167
 11
8.521087
 21
-0.732154
  0
LINE
  8
LAYER01
  6
CONTINUOUS
 62
     7
 10
11.622346
 20
-0.043226
 11
11.493939
 21
0.208786
  0
LINE
  8
LAYER01
  6
CONTINUOUS
 62
     7
 10
10.980306
 20
1.216847
 11
10.939934
 21
1.296082
  0
LINE
  8
LAYER01
  6
CONTINUOUS
 62
     7
 10
10.542877
 20
0.5178
 11
10.671284
 21
0.265788
  0
LINE
  8
LAYER01
  6
CONTINUOUS
 62
     7
 10
11.184917
 20
-0.742273
 11
11.313323
 21
-0.994286
  0
LINE
  8
LAYER01
  6
CONTINUOUS
 62
     7
 10
10.362262
 20
-0.685271
 11
10.233855
 21
-0.433259
  0
LINE
  8
LAYER01
  6
CONTINUOUS
 62
     7
 10
9.720222
 20
0.574802
 11
9.591815
 21
0.826814
  0
LINE
  8
LAYER01
  6
CONTINUOUS
 62
     7
 10
9.282793
 20
-0.124245
 11
9.4112
 21
-0.376257
  0
LINE
  8
LAYER01
  6
CONTINUOUS
 62
     7
 10
9.041827
 20
-1.208872
 11
8.973771
 21
-1.075304
  0
LINE
  8
LAYER01
  6
CONTINUOUS
 62
     7
 10
10.85781
 20
0.678269
 11
10.954116
 21
0.489258
  0
LINE
  8
LAYER01
  6
CONTINUOUS
 62
     7
 10
11.499849
 20
-0.581804
 11
11.596155
 21
-0.770815
  0
LINE
  8
LAYER01
  6
CONTINUOUS
 62
     7
 10
10.645094
 20
-0.461801
 11
10.548788
 21
-0.27279
  0
LINE
  8
LAYER01
  6
CONTINUOUS
 62
     7
 10
10.003054
 20
0.798273
 11
9.906748
 21
0.987284
  0
LINE
  8
LAYER01
  6
CONTINUOUS
 62
     7
 10
9.597726
 20
0.036224
 11
9.694032
 21
-0.152787
  0
LINE
  8
LAYER01
  6
CONTINUOUS
 62
     7
 10
9.38501
 20
-1.103846
 11
9.288704
 21
-0.914835
  0
LINE
  8
LAYER01
  6
CONTINUOUS
 62
     7
 10
11.700653
 20
0.036353
 11
11.604347
 21
0.225364
  0
LINE
  8
LAYER01
  6
CONTINUOUS
 62
     7
 10
11.058613
 20
1.296427
 11
11.046444
 21
1.32031
  0
LINE
  8
LAYER01
  6
CONTINUOUS
 62
     7
 10
10.653285
 20
0.534379
 11
10.749591
 21
0.345368
  0
LINE
  8
LAYER01
  6
CONTINUOUS
 62
     7
 10
11.295325
 20
-0.725695
 11
11.391631
 21
-0.914706
  0
LINE
  8
LAYER01
  6
CONTINUOUS
 62
     7
 10
10.440569
 20
-0.605692
 11
10.344263
 21
-0.416681
  0
LINE
  8
LAYER01
  6
CONTINUOUS
 62
     7
 10
9.798529
 20
0.654382
 11
9.702224
 21
0.843393
  0
LINE
  8
LAYER01
  6
CONTINUOUS
 62
     7
 10
9.393201
 20
-0.107666
 11
9.489507
 21
-0.296677
  0
LINE
  8
LAYER01
  6
CONTINUOUS
 62
     7
 10
9.160667
 20
-1.208842
 11
9.084179
 21
-1.058725
  0
LINE
  8
LAYER01
  6
CONTINUOUS
 62
     7
 10
10.779329
 20
0.598601
 11
10.875634
 21
0.40959
  0
LINE
  8
LAYER01
  6
CONTINUOUS
 62
     7
 10
11.421368
 20
-0.661473
 11
11.517674
 21
-0.850484
  0
LINE
  8
LAYER01
  6
CONTINUOUS
 62
     7
 10
10.566612
 20
-0.541469
 11
10.470306
 21
-0.352458
  0
LINE
  8
LAYER01
  6
CONTINUOUS
 62
     7
 10
9.924573
 20
0.718604
 11
9.828267
 21
0.907615
  0
LINE
  8
LAYER01
  6
CONTINUOUS
 62
     7
 10
9.519244
 20
-0.043444
 11
9.61555
 21
-0.232455
  0
LINE
  8
LAYER01
  6
CONTINUOUS
 62
     7
 10
9.306528
 20
-1.183514
 11
9.210222
 21
-0.994503
  0
LINE
  8
LAYER01
  6
CONTINUOUS
 62
     7
 10
11.433281
 20
-0.13956
 11
11.272771
 21
0.175459
  0
LINE
  8
LAYER01
  6
CONTINUOUS
 62
     7
 10
10.791241
 20
1.120514
 11
10.726476
 21
1.247623
  0
LINE
  8
LAYER01
  6
CONTINUOUS
 62
     7
 10
10.321709
 20
0.484473
 11
10.482219
 21
0.169454
  0
LINE
  8
LAYER01
  6
CONTINUOUS
 62
     7
 10
10.963749
 20
-0.775601
 11
11.124259
 21
-1.090619
  0
LINE
  8
LAYER01
  6
CONTINUOUS
 62
     7
 10
10.173197
 20
-0.781605
 11
10.012687
 21
-0.466586
  0
LINE
  8
LAYER01
  6
CONTINUOUS
 62
     7
 10
9.531157
 20
0.478469
 11
9.370647
 21
0.793487
  0
LINE
  8
LAYER01
  6
CONTINUOUS
 62
     7
 10
9.061625
 20
-0.157572
 11
9.222135
 21
-0.47259
  0
LINE
  8
LAYER01
  6
CONTINUOUS
 62
     7
 10
8.803622
 20
-1.208762
 11
8.769827
 21
-1.142435
  0
LINE
  8
LAYER01
  6
CONTINUOUS
 62
     7
 10
10.619703
 20
1.22348
 11
10.71276
 21
1.040845
  0
LINE
  8
LAYER01
  6
CONTINUOUS
 62
     7
 10
11.19429
 20
0.09579
 11
11.354799
 21
-0.219228
  0
LINE
  8
LAYER01
  6
CONTINUOUS
 62
     7
 10
11.045777
 20
-1.170288
 11
10.885267
 21
-0.855269
  0
LINE
  8
LAYER01
  6
CONTINUOUS
 62
     7
 10
10.403738
 20
0.089786
 11
10.243228
 21
0.404804
  0
LINE
  8
LAYER01
  6
CONTINUOUS
 62
     7
 10
9.292166
 20
0.713819
 11
9.452676
 21
0.3988
  0
LINE
  8
LAYER01
  6
CONTINUOUS
 62
     7
 10
9.934205
 20
-0.546255
 11
10.094715
 21
-0.861273
  0
LINE
  8
LAYER01
  6
CONTINUOUS
 62
     7
 10
9.143654
 20
-0.552259
 11
8.983144
 21
-0.237241
  0
LINE
  8
LAYER01
  6
CONTINUOUS
 62
     7
 10
12.041382
 20
-1.021429
 11
12.040854
 21
-1.020393
  0
LINE
  8
LAYER01
  6
CONTINUOUS
 62
     7
 10
11.623528
 20
-0.201345
 11
11.398814
 21
0.239681
  0
LINE
  8
LAYER01
  6
CONTINUOUS
 62
     7
 10
10.981488
 20
1.058729
 11
10.868752
 21
1.279987
  0
LINE
  8
LAYER01
  6
CONTINUOUS
 62
     7
 10
10.447752
 20
0.548695
 11
10.672466
 21
0.107669
  0
LINE
  8
LAYER01
  6
CONTINUOUS
 62
     7
 10
11.089792
 20
-0.711378
 11
11.314506
 21
-1.152404
  0
LINE
  8
LAYER01
  6
CONTINUOUS
 62
     7
 10
10.363444
 20
-0.84339
 11
10.13873
 21
-0.402364
  0
LINE
  8
LAYER01
  6
CONTINUOUS
 62
     7
 10
9.721404
 20
0.416684
 11
9.496691
 21
0.857709
  0
LINE
  8
LAYER01
  6
CONTINUOUS
 62
     7
 10
9.187668
 20
-0.09335
 11
9.412382
 21
-0.534376
  0
LINE
  8
LAYER01
  6
CONTINUOUS
 62
     7
 10
8.962396
 20
-1.208778
 11
8.878646
 21
-1.044409
  0
LINE
  8
LAYER01
  6
CONTINUOUS
 62
     7
 10
11.864771
 20
-0.752985
 11
11.84812
 21
-0.642429
  0
LINE
  8
LAYER01
  6
CONTINUOUS
 62
     7
 10
11.206049
 20
0.61764
 11
11.2227
 21
0.507083
  0
LINE
  8
LAYER01
  6
CONTINUOUS
 62
     7
 10
10.913652
 20
-0.443978
 11
10.897001
 21
-0.333421
  0
LINE
  8
LAYER01
  6
CONTINUOUS
 62
     7
 10
10.25493
 20
0.926647
 11
10.271581
 21
0.816091
  0
LINE
  8
LAYER01
  6
CONTINUOUS
 62
     7
 10
9.962726
 20
-0.134941
 11
9.946074
 21
-0.024385
  0
LINE
  8
LAYER01
  6
CONTINUOUS
 62
     7
 10
9.637026
 20
-0.975446
 11
9.653677
 21
-1.086003
  0
LINE
  8
LAYER01
  6
CONTINUOUS
 62
     7
 10
9.011606
 20
0.174066
 11
8.994955
 21
0.284623
  0
LINE
  8
LAYER01
  6
CONTINUOUS
 62
     7
 10
8.685907
 20
-0.666438
 11
8.702558
 21
-0.776995
  0
LINE
  8
LAYER01
  6
CONTINUOUS
 62
     7
 10
11.641168
 20
-0.470083
 11
11.624517
 21
-0.359526
  0
LINE
  8
LAYER01
  6
CONTINUOUS
 62
     7
 10
10.982446
 20
0.900543
 11
10.999097
 21
0.789986
  0
LINE
  8
LAYER01
  6
CONTINUOUS
 62
     7
 10
10.690048
 20
-0.161075
 11
10.673397
 21
-0.050519
  0
LINE
  8
LAYER01
  6
CONTINUOUS
 62
     7
 10
10.364349
 20
-1.00158
 11
10.381
 21
-1.112136
  0
LINE
  8
LAYER01
  6
CONTINUOUS
 62
     7
 10
9.739122
 20
0.147962
 11
9.722471
 21
0.258518
  0
LINE
  8
LAYER01
  6
CONTINUOUS
 62
     7
 10
9.413423
 20
-0.692543
 11
9.430074
 21
-0.8031
  0
LINE
  8
LAYER01
  6
CONTINUOUS
 62
     7
 10
11.72076
 20
-0.548547
 11
11.704108
 21
-0.43799
  0
LINE
  8
LAYER01
  6
CONTINUOUS
 62
     7
 10
11.062037
 20
0.822079
 11
11.078689
 21
0.711522
  0
LINE
  8
LAYER01
  6
CONTINUOUS
 62
     7
 10
10.76964
 20
-0.239539
 11
10.752989
 21
-0.128983
  0
LINE
  8
LAYER01
  6
CONTINUOUS
 62
     7
 10
10.114306
 20
1.108591
 11
10.127569
 21
1.02053
  0
LINE
  8
LAYER01
  6
CONTINUOUS
 62
     7
 10
10.443941
 20
-1.080044
 11
10.460592
 21
-1.1906
  0
LINE
  8
LAYER01
  6
CONTINUOUS
 62
     7
 10
9.818714
 20
0.069498
 11
9.802063
 21
0.180054
  0
LINE
  8
LAYER01
  6
CONTINUOUS
 62
     7
 10
9.493015
 20
-0.771007
 11
9.509666
 21
-0.881564
  0
LINE
  8
LAYER01
  6
CONTINUOUS
 62
     7
 10
11.944363
 20
-0.831449
 11
11.911061
 21
-0.610336
  0
LINE
  8
LAYER01
  6
CONTINUOUS
 62
     7
 10
11.26899
 20
0.649732
 11
11.302292
 21
0.428619
  0
LINE
  8
LAYER01
  6
CONTINUOUS
 62
     7
 10
10.993244
 20
-0.522442
 11
10.959941
 21
-0.301329
  0
LINE
  8
LAYER01
  6
CONTINUOUS
 62
     7
 10
10.31787
 20
0.95874
 11
10.351173
 21
0.737627
  0
LINE
  8
LAYER01
  6
CONTINUOUS
 62
     7
 10
10.042317
 20
-0.213405
 11
10.009015
 21
0.007708
  0
LINE
  8
LAYER01
  6
CONTINUOUS
 62
     7
 10
9.699967
 20
-0.943353
 11
9.733269
 21
-1.164466
  0
LINE
  8
LAYER01
  6
CONTINUOUS
 62
     7
 10
9.091198
 20
0.095602
 11
9.057896
 21
0.316715
  0
LINE
  8
LAYER01
  6
CONTINUOUS
 62
     7
 10
8.748847
 20
-0.634346
 11
8.78215
 21
-0.855459
  0
LINE
  8
LAYER01
  6
CONTINUOUS
 62
     7
 10
11.528273
 20
-0.170505
 11
11.578227
 21
-0.502175
  0
LINE
  8
LAYER01
  6
CONTINUOUS
 62
     7
 10
11.232368
 20
-1.20883
 11
11.219225
 21
-1.121567
  0
LINE
  8
LAYER01
  6
CONTINUOUS
 62
     7
 10
10.936156
 20
0.757894
 11
10.886203
 21
1.089563
  0
LINE
  8
LAYER01
  6
CONTINUOUS
 62
     7
 10
10.577154
 20
0.138502
 11
10.627108
 21
-0.193167
  0
LINE
  8
LAYER01
  6
CONTINUOUS
 62
     7
 10
10.318252
 20
-1.1442
 11
10.268299
 21
-0.81253
  0
LINE
  8
LAYER01
  6
CONTINUOUS
 62
     7
 10
9.98523
 20
1.06693
 11
9.983441
 21
1.078804
  0
LINE
  8
LAYER01
  6
CONTINUOUS
 62
     7
 10
9.626228
 20
0.447539
 11
9.676181
 21
0.115869
  0
LINE
  8
LAYER01
  6
CONTINUOUS
 62
     7
 10
9.367133
 20
-0.835192
 11
9.31718
 21
-0.503523
  0
LINE
  8
LAYER01
  6
CONTINUOUS
 62
     7
 10
11.433123
 20
-0.13961
 11
11.499727
 21
-0.581836
  0
LINE
  8
LAYER01
  6
CONTINUOUS
 62
     7
 10
11.14187
 20
-1.208827
 11
11.124074
 21
-1.090672
  0
LINE
  8
LAYER01
  6
CONTINUOUS
 62
     7
 10
10.857656
 20
0.678232
 11
10.791052
 21
1.120458
  0
LINE
  8
LAYER01
  6
CONTINUOUS
 62
     7
 10
10.482004
 20
0.169397
 11
10.548608
 21
-0.272829
  0
LINE
  8
LAYER01
  6
CONTINUOUS
 62
     7
 10
10.2375
 20
-1.2089
 11
10.173148
 21
-0.781635
  0
LINE
  8
LAYER01
  6
CONTINUOUS
 62
     7
 10
9.90673
 20
0.987269
 11
9.895941
 21
1.058908
  0
LINE
  8
LAYER01
  6
CONTINUOUS
 62
     7
 10
9.531077
 20
0.478434
 11
9.597682
 21
0.036208
  0
LINE
  8
LAYER01
  6
CONTINUOUS
 62
     7
 10
9.288634
 20
-0.914854
 11
9.222029
 21
-0.472628
  0
LINE
  8
LAYER01
  6
CONTINUOUS
 62
     7
 10
11.354623
 20
-0.219272
 11
11.421228
 21
-0.661498
  0
LINE
  8
LAYER01
  6
CONTINUOUS
 62
     7
 10
11.051372
 20
-1.208824
 11
11.045575
 21
-1.170333
  0
LINE
  8
LAYER01
  6
CONTINUOUS
 62
     7
 10
10.779157
 20
0.598571
 11
10.712553
 21
1.040797
  0
LINE
  8
LAYER01
  6
CONTINUOUS
 62
     7
 10
10.403504
 20
0.089735
 11
10.470109
 21
-0.352491
  0
LINE
  8
LAYER01
  6
CONTINUOUS
 62
     7
 10
10.147002
 20
-1.208897
 11
10.094649
 21
-0.861297
  0
LINE
  8
LAYER01
  6
CONTINUOUS
 62
     7
 10
9.828231
 20
0.907607
 11
9.80844
 21
1.039011
  0
LINE
  8
LAYER01
  6
CONTINUOUS
 62
     7
 10
9.452578
 20
0.398772
 11
9.519182
 21
-0.043454
  0
LINE
  8
LAYER01
  6
CONTINUOUS
 62
     7
 10
9.210134
 20
-0.994515
 11
9.14353
 21
-0.552289
  0
LINE
  8
LAYER01
  6
CONTINUOUS
 62
     7
 10
12.040606
 20
-1.02047
 11
11.974001
 21
-0.578244
  0
LINE
  8
LAYER01
  6
CONTINUOUS
 62
     7
 10
11.33193
 20
0.681825
 11
11.398535
 21
0.239599
  0
LINE
  8
LAYER01
  6
CONTINUOUS
 62
     7
 10
11.089487
 20
-0.711462
 11
11.022882
 21
-0.269236
  0
LINE
  8
LAYER01
  6
CONTINUOUS
 62
     7
 10
10.380811
 20
0.990833
 11
10.447416
 21
0.548607
  0
LINE
  8
LAYER01
  6
CONTINUOUS
 62
     7
 10
10.13856
 20
-0.402426
 11
10.071956
 21
0.0398
  0
LINE
  8
LAYER01
  6
CONTINUOUS
 62
     7
 10
9.480394
 20
0.96451
 11
9.49649
 21
0.857643
  0
LINE
  8
LAYER01
  6
CONTINUOUS
 62
     7
 10
9.762908
 20
-0.911261
 11
9.807724
 21
-1.208822
  0
LINE
  8
LAYER01
  6
CONTINUOUS
 62
     7
 10
9.187441
 20
-0.093418
 11
9.120837
 21
0.348808
  0
LINE
  8
LAYER01
  6
CONTINUOUS
 62
     7
 10
8.811788
 20
-0.602253
 11
8.878393
 21
-1.044479
  0
LINE
  8
LAYER01
  6
CONTINUOUS
 62
     7
 10
12.131227
 20
-1.021289
 11
12.11755
 21
-0.930484
  0
LINE
  8
LAYER01
  6
CONTINUOUS
 62
     7
 10
11.41043
 20
0.761487
 11
11.493686
 21
0.208704
  0
LINE
  8
LAYER01
  6
CONTINUOUS
 62
     7
 10
11.184637
 20
-0.742357
 11
11.101382
 21
-0.189575
  0
LINE
  8
LAYER01
  6
CONTINUOUS
 62
     7
 10
10.459311
 20
1.070494
 11
10.542566
 21
0.517712
  0
LINE
  8
LAYER01
  6
CONTINUOUS
 62
     7
 10
10.792333
 20
-1.140636
 11
10.802592
 21
-1.208752
  0
LINE
  8
LAYER01
  6
CONTINUOUS
 62
     7
 10
10.233711
 20
-0.433321
 11
10.150455
 21
0.119462
  0
LINE
  8
LAYER01
  6
CONTINUOUS
 62
     7
 10
9.567895
 20
0.984407
 11
9.59164
 21
0.826748
  0
LINE
  8
LAYER01
  6
CONTINUOUS
 62
     7
 10
9.841407
 20
-0.831599
 11
9.898222
 21
-1.208825
  0
LINE
  8
LAYER01
  6
CONTINUOUS
 62
     7
 10
9.282592
 20
-0.124313
 11
9.199336
 21
0.428469
  0
LINE
  8
LAYER01
  6
CONTINUOUS
 62
     7
 10
8.890288
 20
-0.522592
 11
8.973543
 21
-1.075374
  0
LINE
  8
LAYER01
  6
CONTINUOUS
 62
     7
 10
11.604202
 20
0.225349
 11
11.520946
 21
0.778132
  0
LINE
  8
LAYER01
  6
CONTINUOUS
 62
     7
 10
11.211898
 20
-0.17293
 11
11.295153
 21
-0.725712
  0
LINE
  8
LAYER01
  6
CONTINUOUS
 62
     7
 10
10.91564
 20
-1.208915
 11
10.902849
 21
-1.123991
  0
LINE
  8
LAYER01
  6
CONTINUOUS
 62
     7
 10
10.653082
 20
0.534357
 11
10.569827
 21
1.087139
  0
LINE
  8
LAYER01
  6
CONTINUOUS
 62
     7
 10
10.260778
 20
0.136078
 11
10.344034
 21
-0.416705
  0
LINE
  8
LAYER01
  6
CONTINUOUS
 62
     7
 10
10.01124
 20
-1.208795
 11
9.951923
 21
-0.814954
  0
LINE
  8
LAYER01
  6
CONTINUOUS
 62
     7
 10
9.702156
 20
0.843393
 11
9.677189
 21
1.009167
  0
LINE
  8
LAYER01
  6
CONTINUOUS
 62
     7
 10
9.309852
 20
0.445115
 11
9.393108
 21
-0.107668
  0
LINE
  8
LAYER01
  6
CONTINUOUS
 62
     7
 10
9.084059
 20
-1.058729
 11
9.000804
 21
-0.505947
  0
LINE
  8
LAYER01
  6
CONTINUOUS
 62
     7
 10
11.062283
 20
0.822159
 11
11.141937
 21
0.743704
  0
LINE
  8
LAYER01
  6
CONTINUOUS
 62
     7
 10
11.783955
 20
-0.516392
 11
11.7043
 21
-0.437938
  0
LINE
  8
LAYER01
  6
CONTINUOUS
 62
     7
 10
10.190859
 20
1.052698
 11
10.130461
 21
1.112185
  0
LINE
  8
LAYER01
  6
CONTINUOUS
 62
     7
 10
10.753221
 20
-0.128943
 11
10.832876
 21
-0.207398
  0
LINE
  8
LAYER01
  6
CONTINUOUS
 62
     7
 10
9.881934
 20
0.101736
 11
9.802279
 21
0.18019
  0
LINE
  8
LAYER01
  6
CONTINUOUS
 62
     7
 10
10.444296
 20
-1.079906
 11
10.523951
 21
-1.15836
  0
LINE
  8
LAYER01
  6
CONTINUOUS
 62
     7
 10
9.572872
 20
-0.849366
 11
9.493218
 21
-0.770911
  0
LINE
  8
LAYER01
  6
CONTINUOUS
 62
     7
 10
8.609838
 20
-0.528596
 11
8.621794
 21
-0.540372
  0
LINE
  8
LAYER01
  6
CONTINUOUS
 62
     7
 10
11.111004
 20
0.648566
 11
11.190659
 21
0.570112
  0
LINE
  8
LAYER01
  6
CONTINUOUS
 62
     7
 10
11.832676
 20
-0.689985
 11
11.753021
 21
-0.61153
  0
LINE
  8
LAYER01
  6
CONTINUOUS
 62
     7
 10
10.23958
 20
0.879106
 11
10.159925
 21
0.95756
  0
LINE
  8
LAYER01
  6
CONTINUOUS
 62
     7
 10
10.801942
 20
-0.302536
 11
10.881597
 21
-0.38099
  0
LINE
  8
LAYER01
  6
CONTINUOUS
 62
     7
 10
9.930655
 20
-0.071857
 11
9.851
 21
0.006598
  0
LINE
  8
LAYER01
  6
CONTINUOUS
 62
     7
 10
8.954787
 20
0.261553
 11
8.979576
 21
0.237138
  0
LINE
  8
LAYER01
  6
CONTINUOUS
 62
     7
 10
9.621594
 20
-1.022958
 11
9.541939
 21
-0.944504
  0
LINE
  8
LAYER01
  6
CONTINUOUS
 62
     7
 10
8.59086
 20
-0.63551
 11
8.670515
 21
-0.713964
  0
LINE
  8
LAYER01
  6
CONTINUOUS
 62
     7
 10
11.127562
 20
0.537916
 11
11.286872
 21
0.381007
  0
LINE
  8
LAYER01
  6
CONTINUOUS
 62
     7
 10
11.928889
 20
-0.879089
 11
11.76958
 21
-0.72218
  0
LINE
  8
LAYER01
  6
CONTINUOUS
 62
     7
 10
10.335793
 20
0.690001
 11
10.176483
 21
0.84691
  0
LINE
  8
LAYER01
  6
CONTINUOUS
 62
     7
 10
10.818501
 20
-0.413186
 11
10.97781
 21
-0.570095
  0
LINE
  8
LAYER01
  6
CONTINUOUS
 62
     7
 10
10.026869
 20
-0.260962
 11
9.867559
 21
-0.104052
  0
LINE
  8
LAYER01
  6
CONTINUOUS
 62
     7
 10
8.925996
 20
0.195569
 11
9.07579
 21
0.048033
  0
LINE
  8
LAYER01
  6
CONTINUOUS
 62
     7
 10
9.714482
 20
-1.208789
 11
9.558497
 21
-1.055154
  0
LINE
  8
LAYER01
  6
CONTINUOUS
 62
     7
 10
8.607419
 20
-0.74616
 11
8.766728
 21
-0.903069
  0
LINE
  8
LAYER01
  6
CONTINUOUS
 62
     7
 10
11.077612
 20
0.869588
 11
11.236922
 21
0.712679
  0
LINE
  8
LAYER01
  6
CONTINUOUS
 62
     7
 10
11.878939
 20
-0.547417
 11
11.719629
 21
-0.390508
  0
LINE
  8
LAYER01
  6
CONTINUOUS
 62
     7
 10
10.285843
 20
1.021674
 11
10.182045
 21
1.123907
  0
LINE
  8
LAYER01
  6
CONTINUOUS
 62
     7
 10
10.768551
 20
-0.081513
 11
10.92786
 21
-0.238422
  0
LINE
  8
LAYER01
  6
CONTINUOUS
 62
     7
 10
9.976918
 20
0.070711
 11
9.817609
 21
0.22762
  0
LINE
  8
LAYER01
  6
CONTINUOUS
 62
     7
 10
9.012094
 20
0.393244
 11
9.02584
 21
0.379706
  0
LINE
  8
LAYER01
  6
CONTINUOUS
 62
     7
 10
10.459626
 20
-1.032476
 11
10.618936
 21
-1.189385
  0
LINE
  8
LAYER01
  6
CONTINUOUS
 62
     7
 10
9.667857
 20
-0.880391
 11
9.508547
 21
-0.723482
  0
LINE
  8
LAYER01
  6
CONTINUOUS
 62
     7
 10
8.628988
 20
-0.484929
 11
8.716778
 21
-0.571396
  0
LINE
  8
LAYER01
  6
CONTINUOUS
 62
     7
 10
11.064603
 20
0.505859
 11
11.303568
 21
0.270496
  0
LINE
  8
LAYER01
  6
CONTINUOUS
 62
     7
 10
11.945585
 20
-0.989601
 11
11.706621
 21
-0.754237
  0
LINE
  8
LAYER01
  6
CONTINUOUS
 62
     7
 10
10.352489
 20
0.57949
 11
10.113524
 21
0.814853
  0
LINE
  8
LAYER01
  6
CONTINUOUS
 62
     7
 10
9.366755
 20
0.922617
 11
9.40141
 21
0.888484
  0
LINE
  8
LAYER01
  6
CONTINUOUS
 62
     7
 10
10.755542
 20
-0.445243
 11
10.994506
 21
-0.680606
  0
LINE
  8
LAYER01
  6
CONTINUOUS
 62
     7
 10
10.043564
 20
-0.371473
 11
9.8046
 21
-0.136109
  0
LINE
  8
LAYER01
  6
CONTINUOUS
 62
     7
 10
8.897204
 20
0.129861
 11
9.092486
 21
-0.062478
  0
LINE
  8
LAYER01
  6
CONTINUOUS
 62
     7
 10
9.619013
 20
-1.208824
 11
9.495538
 21
-1.087211
  0
LINE
  8
LAYER01
  6
CONTINUOUS
 62
     7
 10
8.54446
 20
-0.778217
 11
8.783424
 21
-1.01358
  0
LINE
  8
LAYER01
  6
CONTINUOUS
 62
     7
 10
11.401204
 20
1.304231
 11
11.344967
 21
1.359621
  0
LINE
  8
LAYER01
  6
CONTINUOUS
 62
     7
 10
11.272634
 20
0.175358
 11
10.954015
 21
0.489176
  0
LINE
  8
LAYER01
  6
CONTINUOUS
 62
     7
 10
10.002936
 20
0.79817
 11
10.321555
 21
0.484352
  0
LINE
  8
LAYER01
  6
CONTINUOUS
 62
     7
 10
11.596032
 20
-0.770921
 11
11.850293
 21
-1.02135
  0
LINE
  8
LAYER01
  6
CONTINUOUS
 62
     7
 10
10.96371
 20
-0.775605
 11
10.64509
 21
-0.461787
  0
LINE
  8
LAYER01
  6
CONTINUOUS
 62
     7
 10
9.370614
 20
0.793485
 11
9.289341
 21
0.873533
  0
LINE
  8
LAYER01
  6
CONTINUOUS
 62
     7
 10
9.694012
 20
-0.152793
 11
10.012631
 21
-0.466611
  0
LINE
  8
LAYER01
  6
CONTINUOUS
 62
     7
 10
9.061552
 20
-0.157616
 11
8.858907
 21
0.041975
  0
LINE
  8
LAYER01
  6
CONTINUOUS
 62
     7
 10
9.38495
 20
-1.103894
 11
9.491489
 21
-1.208828
  0
LINE
  8
LAYER01
  6
CONTINUOUS
 62
     7
 10
8.663722
 20
-1.021287
 11
8.475662
 21
-0.836061
  0
LINE
  8
LAYER01
  6
CONTINUOUS
 62
     7
 10
11.477151
 20
1.072559
 11
11.19193
 21
1.353482
  0
LINE
  8
LAYER01
  6
CONTINUOUS
 62
     7
 10
11.194208
 20
0.095732
 11
10.875589
 21
0.40955
  0
LINE
  8
LAYER01
  6
CONTINUOUS
 62
     7
 10
9.92451
 20
0.718544
 11
10.243129
 21
0.404726
  0
LINE
  8
LAYER01
  6
CONTINUOUS
 62
     7
 10
11.517606
 20
-0.850546
 11
11.770892
 21
-1.100016
  0
LINE
  8
LAYER01
  6
CONTINUOUS
 62
     7
 10
10.885284
 20
-0.855231
 11
10.566665
 21
-0.541413
  0
LINE
  8
LAYER01
  6
CONTINUOUS
 62
     7
 10
9.292188
 20
0.71386
 11
9.208967
 21
0.795827
  0
LINE
  8
LAYER01
  6
CONTINUOUS
 62
     7
 10
9.615586
 20
-0.232418
 11
9.934205
 21
-0.546236
  0
LINE
  8
LAYER01
  6
CONTINUOUS
 62
     7
 10
8.983126
 20
-0.237242
 11
8.810966
 21
-0.067676
  0
LINE
  8
LAYER01
  6
CONTINUOUS
 62
     7
 10
9.306524
 20
-1.18352
 11
9.332188
 21
-1.208797
  0
LINE
  8
LAYER01
  6
CONTINUOUS
 62
     7
 10
8.50442
 20
-1.021256
 11
8.427721
 21
-0.945712
  0
LINE
  8
LAYER01
  6
CONTINUOUS
 62
     7
 10
10.981399
 20
1.058693
 11
11.300018
 21
0.744875
  0
LINE
  8
LAYER01
  6
CONTINUOUS
 62
     7
 10
11.942035
 20
-0.515221
 11
11.623416
 21
-0.201403
  0
LINE
  8
LAYER01
  6
CONTINUOUS
 62
     7
 10
10.348939
 20
1.05387
 11
10.259834
 21
1.141632
  0
LINE
  8
LAYER01
  6
CONTINUOUS
 62
     7
 10
10.672337
 20
0.107592
 11
10.990956
 21
-0.206226
  0
LINE
  8
LAYER01
  6
CONTINUOUS
 62
     7
 10
11.371876
 20
-1.208885
 11
11.314491
 21
-1.152365
  0
LINE
  8
LAYER01
  6
CONTINUOUS
 62
     7
 10
10.040015
 20
0.102907
 11
9.721395
 21
0.416725
  0
LINE
  8
LAYER01
  6
CONTINUOUS
 62
     7
 10
9.040885
 20
0.459228
 11
9.088936
 21
0.411901
  0
LINE
  8
LAYER01
  6
CONTINUOUS
 62
     7
 10
10.363413
 20
-0.843371
 11
10.682032
 21
-1.157189
  0
LINE
  8
LAYER01
  6
CONTINUOUS
 62
     7
 10
9.730953
 20
-0.848195
 11
9.412334
 21
-0.534377
  0
LINE
  8
LAYER01
  6
CONTINUOUS
 62
     7
 10
8.657779
 20
-0.418945
 11
8.779874
 21
-0.5392
  0
LINE
  8
LAYER01
  6
CONTINUOUS
 62
     7
 10
11.456869
 20
0.904127
 11
11.058595
 21
1.296399
  0
LINE
  8
LAYER01
  6
CONTINUOUS
 62
     7
 10
11.700613
 20
0.036303
 11
11.858104
 21
-0.118815
  0
LINE
  8
LAYER01
  6
CONTINUOUS
 62
     7
 10
11.147808
 20
-0.046975
 11
10.749534
 21
0.345297
  0
LINE
  8
LAYER01
  6
CONTINUOUS
 62
     7
 10
9.798455
 20
0.654292
 11
10.196729
 21
0.262019
  0
LINE
  8
LAYER01
  6
CONTINUOUS
 62
     7
 10
11.391551
 20
-0.914799
 11
11.690202
 21
-1.208949
  0
LINE
  8
LAYER01
  6
CONTINUOUS
 62
     7
 10
10.838883
 20
-0.997938
 11
10.440609
 21
-0.605665
  0
LINE
  8
LAYER01
  6
CONTINUOUS
 62
     7
 10
9.245787
 20
0.571153
 11
9.136767
 21
0.67853
  0
LINE
  8
LAYER01
  6
CONTINUOUS
 62
     7
 10
9.489531
 20
-0.296671
 11
9.887805
 21
-0.688943
  0
LINE
  8
LAYER01
  6
CONTINUOUS
 62
     7
 10
8.936726
 20
-0.379949
 11
8.753522
 21
-0.199506
  0
LINE
  8
LAYER01
  6
CONTINUOUS
 62
     7
 10
11.378444
 20
0.824501
 11
10.98017
 21
1.216774
  0
LINE
  8
LAYER01
  6
CONTINUOUS
 62
     7
 10
10.389208
 20
1.171078
 11
10.427365
 21
1.133495
  0
LINE
  8
LAYER01
  6
CONTINUOUS
 62
     7
 10
11.622187
 20
-0.043323
 11
11.931267
 21
-0.347746
  0
LINE
  8
LAYER01
  6
CONTINUOUS
 62
     7
 10
11.069382
 20
-0.126601
 11
10.671108
 21
0.265672
  0
LINE
  8
LAYER01
  6
CONTINUOUS
 62
     7
 10
9.720029
 20
0.574666
 11
10.118303
 21
0.182394
  0
LINE
  8
LAYER01
  6
CONTINUOUS
 62
     7
 10
11.313125
 20
-0.994424
 11
11.5309
 21
-1.208918
  0
LINE
  8
LAYER01
  6
CONTINUOUS
 62
     7
 10
10.760458
 20
-1.077563
 11
10.362184
 21
-0.685291
  0
LINE
  8
LAYER01
  6
CONTINUOUS
 62
     7
 10
9.167362
 20
0.491527
 11
9.088826
 21
0.568879
  0
LINE
  8
LAYER01
  6
CONTINUOUS
 62
     7
 10
9.411105
 20
-0.376296
 11
9.809379
 21
-0.768569
  0
LINE
  8
LAYER01
  6
CONTINUOUS
 62
     7
 10
8.8583
 20
-0.459575
 11
8.705581
 21
-0.309157
  0
ENDBLK
  8
0
  0
BLOCK
  8
0
  2
*D5
 70
    65
 10
0.0
 20
0.0
  0
LINE
  8
LAYER01
 62
     7
 10
8.394687
 20
-2.867473
 11
8.707187
 21
-2.867473
  0
LINE
  8
LAYER01
 62
     7
 10
7.897043
 20
-2.867473
 11
7.584543
 21
-2.867473
  0
LINE
  8
LAYER01
 62
     7
 10
8.394687
 20
-2.427758
 11
8.394687
 21
-2.969035
  0
LINE
  8
LAYER01
 62
     7
 10
7.897043
 20
-2.253258
 11
7.897043
 21
-2.969035
  0
LINE
  8
LAYER01
 62
     7
 10
8.550937
 20
-2.841432
 11
8.394687
 21
-2.867473
  0
LINE
  8
LAYER01
 62
     7
 10
8.550937
 20
-2.893513
 11
8.394687
 21
-2.867473
  0
LINE
  8
LAYER01
 62
     7
 10
7.740793
 20
-2.841432
 11
7.897043
 21
-2.867473
  0
LINE
  8
LAYER01
 62
     7
 10
7.740793
 20
-2.893513
 11
7.897043
 21
-2.867473
  0
TEXT
  8
LAYER01
  6
CONTINUOUS
 62
     7
 10
8.808749
 20
-2.76591
 40
0.203125
  1
0 1/2"
  0
POINT
  8
LAYER01
 62
     7
 10
8.394687
 20
-2.346508
  0
POINT
  8
LAYER01
 62
     7
 10
7.897043
 20
-2.172008
  0
POINT
  8
LAYER01
 62
     7
 10
7.897043
 20
-2.867473
  0
ENDBLK
  8
0
  0
BLOCK
  8
0
  2
*D6
 70
    65
 10
0.0
 20
0.0
  0
LINE
  8
LAYER01
 62
     7
 10
-3.769504
 20
-9.118062
 11
-3.457004
 21
-9.118062
  0
LINE
  8
LAYER01
 62
     7
 10
-4.268869
 20
-9.118062
 11
-4.581369
 21
-9.118062
  0
LINE
  8
LAYER01
 62
     7
 10
-3.769504
 20
-9.659597
 11
-3.769504
 21
-9.016499
  0
LINE
  8
LAYER01
 62
     7
 10
-4.268869
 20
-9.659597
 11
-4.268869
 21
-9.016499
  0
LINE
  8
LAYER01
 62
     7
 10
-3.613254
 20
-9.092021
 11
-3.769504
 21
-9.118062
  0
LINE
  8
LAYER01
 62
     7
 10
-3.613254
 20
-9.144102
 11
-3.769504
 21
-9.118062
  0
LINE
  8
LAYER01
 62
     7
 10
-4.425119
 20
-9.092021
 11
-4.268869
 21
-9.118062
  0
LINE
  8
LAYER01
 62
     7
 10
-4.425119
 20
-9.144102
 11
-4.268869
 21
-9.118062
  0
TEXT
  8
LAYER01
  6
CONTINUOUS
 62
     7
 10
-3.355442
 20
-9.016499
 40
0.203125
  1
0 1/2"
  0
POINT
  8
LAYER01
 62
     7
 10
-3.769504
 20
-9.740847
  0
POINT
  8
LAYER01
 62
     7
 10
-4.268869
 20
-9.740847
  0
POINT
  8
LAYER01
 62
     7
 10
-4.268869
 20
-9.118062
  0
ENDBLK
  8
0
  0
BLOCK
  8
0
  2
*D7
 70
    65
 10
0.0
 20
0.0
  0
LINE
  8
LAYER01
 62
     7
 10
-4.621189
 20
-9.740847
 11
-4.621189
 21
-11.065847
  0
LINE
  8
LAYER01
 62
     7
 10
-3.850754
 20
-9.740847
 11
-4.722751
 21
-9.740847
  0
LINE
  8
LAYER01
 62
     7
 10
-3.850754
 20
-11.065847
 11
-4.722751
 21
-11.065847
  0
LINE
  8
LAYER01
 62
     7
 10
-4.647229
 20
-9.897097
 11
-4.621189
 21
-9.740847
  0
LINE
  8
LAYER01
 62
     7
 10
-4.595148
 20
-9.897097
 11
-4.621189
 21
-9.740847
  0
LINE
  8
LAYER01
 62
     7
 10
-4.647229
 20
-10.909597
 11
-4.621189
 21
-11.065847
  0
LINE
  8
LAYER01
 62
     7
 10
-4.595148
 20
-10.909597
 11
-4.621189
 21
-11.065847
  0
TEXT
  8
LAYER01
  6
CONTINUOUS
 62
     7
 10
-4.722751
 20
-10.87555
 40
0.203125
  1
1 5/16"
 50
90.0
  0
POINT
  8
LAYER01
 62
     7
 10
-3.769504
 20
-9.740847
  0
POINT
  8
LAYER01
 62
     7
 10
-3.769504
 20
-11.065847
  0
POINT
  8
LAYER01
 62
     7
 10
-4.621189
 20
-11.065847
  0
ENDBLK
  8
0
  0
BLOCK
  8
0
  2
CHEROKEE-G9
 70
     0
 10
0.0
 20
0.0
  0
LINE
  8
LAYER01
  6
CONTINUOUS
 62
     7
 10
0.880845
 20
-3.082574
 11
1.786561
 21
-3.082574
  0
ENDBLK
  8
0
  0
BLOCK
  8
0
  2
*D9
 70
    65
 10
0.0
 20
0.0
  0
LINE
  8
LAYER01
 62
     7
 10
0.175271
 20
-4.447911
 11
0.487771
 21
-4.447911
  0
LINE
  8
LAYER01
 62
     7
 10
0.000271
 20
-4.447911
 11
-0.312229
 21
-4.447911
  0
LINE
  8
LAYER01
 62
     7
 10
0.175271
 20
-3.523026
 11
0.175271
 21
-4.549474
  0
LINE
  8
LAYER01
 62
     7
 10
0.000271
 20
-3.83322
 11
0.000271
 21
-4.549474
  0
LINE
  8
LAYER01
 62
     7
 10
0.331521
 20
-4.421871
 11
0.175271
 21
-4.447911
  0
LINE
  8
LAYER01
 62
     7
 10
0.331521
 20
-4.473952
 11
0.175271
 21
-4.447911
  0
LINE
  8
LAYER01
 62
     7
 10
-0.155979
 20
-4.421871
 11
0.000271
 21
-4.447911
  0
LINE
  8
LAYER01
 62
     7
 10
-0.155979
 20
-4.473952
 11
0.000271
 21
-4.447911
  0
TEXT
  8
LAYER01
  6
CONTINUOUS
 62
     7
 10
0.589334
 20
-4.346349
 40
0.203125
  1
0 3/16"
  0
POINT
  8
LAYER01
 62
     7
 10
0.175271
 20
-3.441776
  0
POINT
  8
LAYER01
 62
     7
 10
0.000271
 20
-3.75197
  0
POINT
  8
LAYER01
 62
     7
 10
0.000271
 20
-4.447911
  0
ENDBLK
  8
0
  0
BLOCK
  8
0
  2
*D10
 70
    65
 10
0.0
 20
0.0
  0
LINE
  8
LAYER01
 62
     7
 10
0.74818
 20
-3.75197
 11
0.74818
 21
0.0
  0
LINE
  8
LAYER01
 62
     7
 10
0.081521
 20
-3.75197
 11
0.849743
 21
-3.75197
  0
LINE
  8
LAYER01
 62
     7
 10
0.08125
 20
0.0
 11
0.849743
 21
0.0
  0
LINE
  8
LAYER01
 62
     7
 10
0.774221
 20
-3.59572
 11
0.74818
 21
-3.75197
  0
LINE
  8
LAYER01
 62
     7
 10
0.72214
 20
-3.59572
 11
0.74818
 21
-3.75197
  0
LINE
  8
LAYER01
 62
     7
 10
0.774221
 20
-0.15625
 11
0.74818
 21
0.0
  0
LINE
  8
LAYER01
 62
     7
 10
0.72214
 20
-0.15625
 11
0.74818
 21
0.0
  0
TEXT
  8
LAYER01
  6
CONTINUOUS
 62
     7
 10
0.646618
 20
-2.27363
 40
0.203125
  1
3 3/4"
 50
90.0
  0
POINT
  8
LAYER01
 62
     7
 10
0.000271
 20
-3.75197
  0
POINT
  8
LAYER01
 62
     7
 10
0.0
 20
0.0
  0
POINT
  8
LAYER01
 62
     7
 10
0.74818
 20
0.0
  0
ENDBLK
  8
0
  0
BLOCK
  8
0
  2
CHEROKEE-G12
 70
     0
 10
0.0
 20
0.0
  0
LINE
  8
LAYER01
  6
CONTINUOUS
 62
     7
 10
0.360454
 20
-2.663776
 11
0.209738
 21
-2.472766
  0
ENDBLK
  8
0
  0
BLOCK
  8
0
  2
CHEROKEE-G13
 70
     0
 10
0.0
 20
0.0
  0
LINE
  8
LAYER01
  6
CONTINUOUS
 62
     7
 10
0.414286
 20
-2.604573
 11
0.20977
 21
-2.472766
  0
ENDBLK
  8
0
  0
BLOCK
  8
0
  2
CHEROKEE-G14
 70
     0
 10
0.0
 20
0.0
  0
LINE
  8
LAYER01
  6
CONTINUOUS
 62
     7
 10
0.209802
 20
-2.472766
 11
0.880845
 21
-3.082574
  0
ENDBLK
  8
0
  0
BLOCK
  8
0
  2
*D14
 70
    65
 10
0.0
 20
0.0
  0
LINE
  8
LAYER01
 62
     7
 10
0.464356
 20
0.0
 11
0.464356
 21
0.3125
  0
LINE
  8
LAYER01
 62
     7
 10
0.464356
 20
-0.31
 11
0.464356
 21
-0.6225
  0
LINE
  8
LAYER01
 62
     7
 10
0.08125
 20
0.0
 11
0.565919
 21
0.0
  0
LINE
  8
LAYER01
 62
     7
 10
0.256521
 20
-0.31
 11
0.565919
 21
-0.31
  0
LINE
  8
LAYER01
 62
     7
 10
0.438316
 20
0.15625
 11
0.464356
 21
0.0
  0
LINE
  8
LAYER01
 62
     7
 10
0.490397
 20
0.15625
 11
0.464356
 21
0.0
  0
LINE
  8
LAYER01
 62
     7
 10
0.438316
 20
-0.46625
 11
0.464356
 21
-0.31
  0
LINE
  8
LAYER01
 62
     7
 10
0.490397
 20
-0.46625
 11
0.464356
 21
-0.31
  0
TEXT
  8
LAYER01
  6
CONTINUOUS
 62
     7
 10
0.362794
 20
0.414063
 40
0.203125
  1
0 5/16"
 50
90.0
  0
POINT
  8
LAYER01
 62
     7
 10
0.0
 20
0.0
  0
POINT
  8
LAYER01
 62
     7
 10
0.175271
 20
-0.31
  0
POINT
  8
LAYER01
 62
     7
 10
0.464356
 20
-0.31
  0
ENDBLK
  8
0
  0
BLOCK
  8
LAYER01
  2
CHEROKEE-G16
 70
     0
 10
0.0
 20
0.0
  0
LINE
  8
LAYER01
  6
CONTINUOUS
 62
     7
 10
8.769673
 20
-1.211774
 11
8.394685
 21
-1.586761
  0
LINE
  8
LAYER01
  6
CONTINUOUS
 62
     7
 10
8.769674
 20
-1.300164
 11
8.394687
 21
-1.675151
  0
LINE
  8
LAYER01
  6
CONTINUOUS
 62
     7
 10
8.418902
 20
-1.209004
 11
8.394678
 21
-1.233228
  0
LINE
  8
LAYER01
  6
CONTINUOUS
 62
     7
 10
8.474224
 20
-1.684006
 11
8.769676
 21
-1.388554
  0
LINE
  8
LAYER01
  6
CONTINUOUS
 62
     7
 10
8.507292
 20
-1.209006
 11
8.394679
 21
-1.321618
  0
LINE
  8
LAYER01
  6
CONTINUOUS
 62
     7
 10
8.562614
 20
-1.684008
 11
8.769678
 21
-1.476944
  0
ENDBLK
  8
0
  0
BLOCK
  8
LAYER01
  2
CHEROKEE-G17
 70
     0
 10
0.0
 20
0.0
  0
LINE
  8
LAYER01
  6
CONTINUOUS
 62
     7
 10
8.769676
 20
-2.272453
 11
8.716629
 21
-2.3255
  0
LINE
  8
LAYER01
  6
CONTINUOUS
 62
     7
 10
8.428188
 20
-2.172016
 11
8.394683
 21
-2.205521
  0
LINE
  8
LAYER01
  6
CONTINUOUS
 62
     7
 10
8.516577
 20
-2.172017
 11
8.394684
 21
-2.29391
  0
LINE
  8
LAYER01
  6
CONTINUOUS
 62
     7
 10
8.604953
 20
-2.172004
 11
8.451447
 21
-2.32551
  0
ENDBLK
  8
0
  0
BLOCK
  8
LAYER01
  2
CHEROKEE-G18
 70
     0
 10
0.0
 20
0.0
  0
LINE
  8
LAYER01
  6
CONTINUOUS
 62
     7
 10
8.716611
 20
-2.325503
 11
8.695618
 21
-2.346495
  0
LINE
  8
LAYER01
  6
CONTINUOUS
 62
     7
 10
8.451448
 20
-2.325506
 11
8.430442
 21
-2.346512
  0
ENDBLK
  8
0
  0
BLOCK
  8
LAYER01
  2
CHEROKEE-G19
 70
     0
 10
0.0
 20
0.0
  0
LINE
  8
LAYER01
  6
CONTINUOUS
 62
     7
 10
8.769674
 20
-1.7421
 11
8.394686
 21
-2.117088
  0
LINE
  8
LAYER01
  6
CONTINUOUS
 62
     7
 10
8.769675
 20
-1.830491
 11
8.441161
 21
-2.159005
  0
LINE
  8
LAYER01
  6
CONTINUOUS
 62
     7
 10
8.474228
 20
-1.684005
 11
8.394679
 21
-1.763555
  0
LINE
  8
LAYER01
  6
CONTINUOUS
 62
     7
 10
8.529551
 20
-2.159007
 11
8.769677
 21
-1.918881
  0
LINE
  8
LAYER01
  6
CONTINUOUS
 62
     7
 10
8.562618
 20
-1.684007
 11
8.394681
 21
-1.851945
  0
LINE
  8
LAYER01
  6
CONTINUOUS
 62
     7
 10
8.617941
 20
-2.159009
 11
8.769679
 21
-2.007271
  0
ENDBLK
  8
0
  0
BLOCK
  8
LAYER01
  2
CHEROKEE-G20
 70
     0
 10
0.0
 20
0.0
  0
LINE
  8
LAYER01
  6
CONTINUOUS
 62
     7
 10
8.408632
 20
-1.042516
 11
8.394683
 21
-1.056464
  0
LINE
  8
LAYER01
  6
CONTINUOUS
 62
     7
 10
8.497021
 20
-1.042517
 11
8.394684
 21
-1.144854
  0
LINE
  8
LAYER01
  6
CONTINUOUS
 62
     7
 10
8.585424
 20
-1.042504
 11
8.431919
 21
-1.19601
  0
LINE
  8
LAYER01
  6
CONTINUOUS
 62
     7
 10
8.673814
 20
-1.042505
 11
8.520308
 21
-1.196011
  0
ENDBLK
  8
0
  0
BLOCK
  8
LAYER01
  2
CHEROKEE-G21
 70
     0
 10
0.0
 20
0.0
  0
LINE
  8
LAYER01
  6
CONTINUOUS
 62
     7
 10
8.429626
 20
-1.021504
 11
8.40862
 21
-1.04251
  0
LINE
  8
LAYER01
  6
CONTINUOUS
 62
     7
 10
8.517995
 20
-1.021512
 11
8.496988
 21
-1.042518
  0
LINE
  8
LAYER01
  6
CONTINUOUS
 62
     7
 10
8.606405
 20
-1.021506
 11
8.585399
 21
-1.042512
  0
LINE
  8
LAYER01
  6
CONTINUOUS
 62
     7
 10
8.694788
 20
-1.021501
 11
8.673782
 21
-1.042507
  0
ENDBLK
  8
0
  0
BLOCK
  8
0
  2
*D21
 70
    65
 10
0.0
 20
0.0
  0
LINE
  8
LAYER01
 62
     7
 10
21.653543
 20
-15.759951
 11
22.653543
 21
-15.759951
  0
LINE
  8
LAYER01
 62
     7
 10
21.653543
 20
-15.664331
 11
21.653543
 21
-15.834951
  0
LINE
  8
LAYER01
 62
     7
 10
22.653543
 20
-15.664331
 11
22.653543
 21
-15.834951
  0
LINE
  8
LAYER01
 62
     7
 10
21.773543
 20
-15.77995
 11
21.653543
 21
-15.759951
  0
LINE
  8
LAYER01
 62
     7
 10
21.773543
 20
-15.739952
 11
21.653543
 21
-15.759951
  0
LINE
  8
LAYER01
 62
     7
 10
22.533543
 20
-15.77995
 11
22.653543
 21
-15.759951
  0
LINE
  8
LAYER01
 62
     7
 10
22.533543
 20
-15.739952
 11
22.653543
 21
-15.759951
  0
TEXT
  8
LAYER01
  6
CONTINUOUS
 62
     7
 10
21.942121
 20
-15.934867
 40
0.15
  1
1.00"
  0
POINT
  8
LAYER01
 62
     7
 10
21.653543
 20
-15.604331
  0
POINT
  8
LAYER01
 62
     7
 10
22.653543
 20
-15.604331
  0
POINT
  8
LAYER01
 62
     7
 10
22.653543
 20
-15.759951
  0
ENDBLK
  8
0
  0
BLOCK
  8
LAYER01
  2
CHEROKEE-G23
 70
     0
 10
0.0
 20
0.0
  0
LINE
  8
LAYER01
  6
CONTINUOUS
 62
     7
 10
11.954432
 20
-1.209006
 11
11.770999
 21
-1.392439
  0
LINE
  8
LAYER01
  6
CONTINUOUS
 62
     7
 10
12.009772
 20
-1.683996
 11
12.146
 21
-1.547768
  0
LINE
  8
LAYER01
  6
CONTINUOUS
 62
     7
 10
12.042821
 20
-1.209006
 11
11.770999
 21
-1.480827
  0
LINE
  8
LAYER01
  6
CONTINUOUS
 62
     7
 10
12.09816
 20
-1.683996
 11
12.146
 21
-1.636156
  0
LINE
  8
LAYER01
  6
CONTINUOUS
 62
     7
 10
12.131209
 20
-1.209006
 11
11.770999
 21
-1.569216
  0
LINE
  8
LAYER01
  6
CONTINUOUS
 62
     7
 10
12.146
 20
-1.282603
 11
11.770999
 21
-1.657604
  0
ENDBLK
  8
0
  0
BLOCK
  8
LAYER01
  2
CHEROKEE-G24
 70
     0
 10
0.0
 20
0.0
  0
LINE
  8
LAYER01
  6
CONTINUOUS
 62
     7
 10
13.54541
 20
-1.209007
 11
13.39468
 21
-1.359737
  0
LINE
  8
LAYER01
  6
CONTINUOUS
 62
     7
 10
13.600733
 20
-1.684009
 11
13.769679
 21
-1.515062
  0
LINE
  8
LAYER01
  6
CONTINUOUS
 62
     7
 10
13.6338
 20
-1.209009
 11
13.394682
 21
-1.448127
  0
LINE
  8
LAYER01
  6
CONTINUOUS
 62
     7
 10
13.689123
 20
-1.68401
 11
13.769681
 21
-1.603453
  0
LINE
  8
LAYER01
  6
CONTINUOUS
 62
     7
 10
13.72219
 20
-1.209011
 11
13.394684
 21
-1.536517
  0
LINE
  8
LAYER01
  6
CONTINUOUS
 62
     7
 10
13.769673
 20
-1.24992
 11
13.394686
 21
-1.624907
  0
ENDBLK
  8
0
  0
BLOCK
  8
LAYER01
  2
CHEROKEE-G25
 70
     0
 10
0.0
 20
0.0
  0
LINE
  8
LAYER01
  6
CONTINUOUS
 62
     7
 10
11.89861
 20
-2.325498
 11
11.877604
 21
-2.346504
  0
LINE
  8
LAYER01
  6
CONTINUOUS
 62
     7
 10
11.986979
 20
-2.325507
 11
11.965973
 21
-2.346513
  0
LINE
  8
LAYER01
  6
CONTINUOUS
 62
     7
 10
12.075362
 20
-2.325501
 11
12.054356
 21
-2.346507
  0
LINE
  8
LAYER01
  6
CONTINUOUS
 62
     7
 10
12.145984
 20
-2.343284
 11
12.142766
 21
-2.346501
  0
ENDBLK
  8
0
  0
BLOCK
  8
LAYER01
  2
CHEROKEE-G26
 70
     0
 10
0.0
 20
0.0
  0
LINE
  8
LAYER01
  6
CONTINUOUS
 62
     7
 10
11.89861
 20
-2.325498
 11
11.877604
 21
-2.346504
  0
LINE
  8
LAYER01
  6
CONTINUOUS
 62
     7
 10
11.986979
 20
-2.325507
 11
11.965973
 21
-2.346513
  0
LINE
  8
LAYER01
  6
CONTINUOUS
 62
     7
 10
12.075362
 20
-2.325501
 11
12.054356
 21
-2.346507
  0
LINE
  8
LAYER01
  6
CONTINUOUS
 62
     7
 10
12.145984
 20
-2.343284
 11
12.142766
 21
-2.346501
  0
ENDBLK
  8
0
  0
BLOCK
  8
LAYER01
  2
CHEROKEE-G27
 70
     0
 10
0.0
 20
0.0
  0
LINE
  8
LAYER01
  6
CONTINUOUS
 62
     7
 10
12.052122
 20
-2.172005
 11
11.898617
 21
-2.325511
  0
LINE
  8
LAYER01
  6
CONTINUOUS
 62
     7
 10
12.140484
 20
-2.172006
 11
11.986992
 21
-2.325498
  0
LINE
  8
LAYER01
  6
CONTINUOUS
 62
     7
 10
12.145996
 20
-2.254885
 11
12.075382
 21
-2.325499
  0
LINE
  8
LAYER01
  6
CONTINUOUS
 62
     7
 10
11.78694
 20
-2.172016
 11
11.771003
 21
-2.187953
  0
ENDBLK
  8
0
  0
BLOCK
  8
LAYER01
  2
CHEROKEE-G28
 70
     0
 10
0.0
 20
0.0
  0
LINE
  8
LAYER01
  6
CONTINUOUS
 62
     7
 10
13.489569
 20
-2.325509
 11
13.468563
 21
-2.346515
  0
LINE
  8
LAYER01
  6
CONTINUOUS
 62
     7
 10
13.57798
 20
-2.325504
 11
13.556974
 21
-2.34651
  0
LINE
  8
LAYER01
  6
CONTINUOUS
 62
     7
 10
13.666363
 20
-2.325498
 11
13.645357
 21
-2.346504
  0
LINE
  8
LAYER01
  6
CONTINUOUS
 62
     7
 10
13.754759
 20
-2.325506
 11
13.733753
 21
-2.346512
  0
ENDBLK
  8
0
  0
BLOCK
  8
LAYER01
  2
CHEROKEE-G29
 70
     0
 10
0.0
 20
0.0
  0
LINE
  8
LAYER01
  6
CONTINUOUS
 62
     7
 10
13.643098
 20
-2.172005
 11
13.489593
 21
-2.325511
  0
LINE
  8
LAYER01
  6
CONTINUOUS
 62
     7
 10
13.731488
 20
-2.172006
 11
13.577982
 21
-2.325512
  0
LINE
  8
LAYER01
  6
CONTINUOUS
 62
     7
 10
13.769676
 20
-2.222209
 11
13.666385
 21
-2.325499
  0
LINE
  8
LAYER01
  6
CONTINUOUS
 62
     7
 10
13.769677
 20
-2.310598
 11
13.754775
 21
-2.3255
  0
ENDBLK
  8
0
  0
BLOCK
  8
LAYER01
  2
CHEROKEE-G30
 70
     0
 10
0.0
 20
0.0
  0
LINE
  8
LAYER01
  6
CONTINUOUS
 62
     7
 10
12.009761
 20
-1.684009
 11
11.771002
 21
-1.922768
  0
LINE
  8
LAYER01
  6
CONTINUOUS
 62
     7
 10
12.065084
 20
-2.15901
 11
12.146001
 21
-2.078094
  0
LINE
  8
LAYER01
  6
CONTINUOUS
 62
     7
 10
12.098151
 20
-1.684011
 11
11.771004
 21
-2.011158
  0
LINE
  8
LAYER01
  6
CONTINUOUS
 62
     7
 10
12.145993
 20
-1.724561
 11
11.771006
 21
-2.099548
  0
LINE
  8
LAYER01
  6
CONTINUOUS
 62
     7
 10
12.145995
 20
-1.812951
 11
11.799941
 21
-2.159005
  0
ENDBLK
  8
0
  0
BLOCK
  8
LAYER01
  2
CHEROKEE-G31
 70
     0
 10
0.0
 20
0.0
  0
LINE
  8
LAYER01
  6
CONTINUOUS
 62
     7
 10
13.600737
 20
-1.684008
 11
13.394681
 21
-1.890063
  0
LINE
  8
LAYER01
  6
CONTINUOUS
 62
     7
 10
13.656059
 20
-2.15901
 11
13.76968
 21
-2.045389
  0
LINE
  8
LAYER01
  6
CONTINUOUS
 62
     7
 10
13.689127
 20
-1.68401
 11
13.394683
 21
-1.978454
  0
LINE
  8
LAYER01
  6
CONTINUOUS
 62
     7
 10
13.74445
 20
-2.159011
 11
13.769682
 21
-2.133779
  0
LINE
  8
LAYER01
  6
CONTINUOUS
 62
     7
 10
13.769673
 20
-1.691856
 11
13.394685
 21
-2.066844
  0
LINE
  8
LAYER01
  6
CONTINUOUS
 62
     7
 10
13.769674
 20
-1.780246
 11
13.394687
 21
-2.155234
  0
ENDBLK
  8
0
  0
BLOCK
  8
LAYER01
  2
CHEROKEE-G32
 70
     0
 10
0.0
 20
0.0
  0
LINE
  8
LAYER01
  6
CONTINUOUS
 62
     7
 10
17.519163
 20
-1.632582
 11
17.509163
 21
-1.632582
  0
LINE
  8
LAYER01
  6
CONTINUOUS
 62
     7
 10
17.319163
 20
-1.632582
 11
17.309163
 21
-1.632582
  0
LINE
  8
LAYER01
  6
CONTINUOUS
 62
     7
 10
17.119163
 20
-1.632582
 11
17.109163
 21
-1.632582
  0
LINE
  8
LAYER01
  6
CONTINUOUS
 62
     7
 10
17.189165
 20
-1.742579
 11
17.189165
 21
-1.746973
  0
LINE
  8
LAYER01
  6
CONTINUOUS
 62
     7
 10
17.389177
 20
-1.746973
 11
17.389177
 21
-1.742579
  0
LINE
  8
LAYER01
  6
CONTINUOUS
 62
     7
 10
17.589159
 20
-1.742579
 11
17.589159
 21
-1.746973
  0
LINE
  8
LAYER01
  6
CONTINUOUS
 62
     7
 10
17.089143
 20
-1.642573
 11
17.069364
 21
-1.662352
  0
LINE
  8
LAYER01
  6
CONTINUOUS
 62
     7
 10
17.189142
 20
-1.742571
 11
17.199141
 21
-1.732573
  0
LINE
  8
LAYER01
  6
CONTINUOUS
 62
     7
 10
17.219138
 20
-1.712576
 11
17.289141
 21
-1.642572
  0
LINE
  8
LAYER01
  6
CONTINUOUS
 62
     7
 10
17.48914
 20
-1.642571
 11
17.419137
 21
-1.712574
  0
LINE
  8
LAYER01
  6
CONTINUOUS
 62
     7
 10
17.39914
 20
-1.732571
 11
17.389141
 21
-1.74257
  0
LINE
  8
LAYER01
  6
CONTINUOUS
 62
     7
 10
17.58914
 20
-1.742568
 11
17.599138
 21
-1.73257
  0
LINE
  8
LAYER01
  6
CONTINUOUS
 62
     7
 10
17.619135
 20
-1.712573
 11
17.641889
 21
-1.689818
  0
LINE
  8
LAYER01
  6
CONTINUOUS
 62
     7
 10
17.109159
 20
-1.632576
 11
17.09916
 21
-1.642576
  0
LINE
  8
LAYER01
  6
CONTINUOUS
 62
     7
 10
17.299158
 20
-1.642575
 11
17.309158
 21
-1.632575
  0
LINE
  8
LAYER01
  6
CONTINUOUS
 62
     7
 10
17.509157
 20
-1.632573
 11
17.499157
 21
-1.642573
  0
LINE
  8
LAYER01
  6
CONTINUOUS
 62
     7
 10
17.169779
 20
-1.621966
 11
17.169165
 21
-1.622581
  0
LINE
  8
LAYER01
  6
CONTINUOUS
 62
     7
 10
17.369163
 20
-1.62258
 11
17.369778
 21
-1.621964
  0
LINE
  8
LAYER01
  6
CONTINUOUS
 62
     7
 10
17.569777
 20
-1.621963
 11
17.569162
 21
-1.622578
  0
LINE
  8
LAYER01
  6
CONTINUOUS
 62
     7
 10
17.19915
 20
-1.622567
 11
17.18915
 21
-1.632567
  0
LINE
  8
LAYER01
  6
CONTINUOUS
 62
     7
 10
17.389149
 20
-1.632565
 11
17.399149
 21
-1.622566
  0
LINE
  8
LAYER01
  6
CONTINUOUS
 62
     7
 10
17.599147
 20
-1.622564
 11
17.589148
 21
-1.632564
  0
LINE
  8
LAYER01
  6
CONTINUOUS
 62
     7
 10
17.219157
 20
-1.632574
 11
17.199158
 21
-1.652574
  0
LINE
  8
LAYER01
  6
CONTINUOUS
 62
     7
 10
17.399156
 20
-1.652573
 11
17.419156
 21
-1.632573
  0
LINE
  8
LAYER01
  6
CONTINUOUS
 62
     7
 10
17.607273
 20
-1.644454
 11
17.599155
 21
-1.652571
  0
LINE
  8
LAYER01
  6
CONTINUOUS
 62
     7
 10
17.154764
 20
-1.746978
 11
17.159162
 21
-1.74258
  0
LINE
  8
LAYER01
  6
CONTINUOUS
 62
     7
 10
17.359161
 20
-1.742578
 11
17.354785
 21
-1.746954
  0
LINE
  8
LAYER01
  6
CONTINUOUS
 62
     7
 10
17.554784
 20
-1.746952
 11
17.559159
 21
-1.742577
  0
LINE
  8
LAYER01
  6
CONTINUOUS
 62
     7
 10
17.089166
 20
-1.682584
 11
17.06954
 21
-1.70221
  0
LINE
  8
LAYER01
  6
CONTINUOUS
 62
     7
 10
17.249165
 20
-1.722582
 11
17.289165
 21
-1.682582
  0
LINE
  8
LAYER01
  6
CONTINUOUS
 62
     7
 10
17.489164
 20
-1.682581
 11
17.449164
 21
-1.722581
  0
LINE
  8
LAYER01
  6
CONTINUOUS
 62
     7
 10
17.139155
 20
-1.732572
 11
17.124752
 21
-1.746975
  0
LINE
  8
LAYER01
  6
CONTINUOUS
 62
     7
 10
17.324751
 20
-1.746973
 11
17.339154
 21
-1.73257
  0
LINE
  8
LAYER01
  6
CONTINUOUS
 62
     7
 10
17.539153
 20
-1.732569
 11
17.524772
 21
-1.74695
  0
LINE
  8
LAYER01
  6
CONTINUOUS
 62
     7
 10
17.099153
 20
-1.702569
 11
17.069153
 21
-1.732569
  0
LINE
  8
LAYER01
  6
CONTINUOUS
 62
     7
 10
17.269151
 20
-1.732568
 11
17.299151
 21
-1.702568
  0
LINE
  8
LAYER01
  6
CONTINUOUS
 62
     7
 10
17.49915
 20
-1.702566
 11
17.46915
 21
-1.732566
  0
LINE
  8
LAYER01
  6
CONTINUOUS
 62
     7
 10
17.11917
 20
-1.722586
 11
17.094784
 21
-1.746972
  0
LINE
  8
LAYER01
  6
CONTINUOUS
 62
     7
 10
17.294783
 20
-1.74697
 11
17.319168
 21
-1.722585
  0
LINE
  8
LAYER01
  6
CONTINUOUS
 62
     7
 10
17.519167
 20
-1.722583
 11
17.494803
 21
-1.746947
  0
LINE
  8
LAYER01
  6
CONTINUOUS
 62
     7
 10
17.069152
 20
-1.642569
 11
17.068137
 21
-1.643584
  0
LINE
  8
LAYER01
  6
CONTINUOUS
 62
     7
 10
17.219151
 20
-1.692567
 11
17.269151
 21
-1.642567
  0
LINE
  8
LAYER01
  6
CONTINUOUS
 62
     7
 10
17.469149
 20
-1.642566
 11
17.419149
 21
-1.692566
  0
LINE
  8
LAYER01
  6
CONTINUOUS
 62
     7
 10
17.619148
 20
-1.692564
 11
17.630172
 21
-1.68154
  0
LINE
  8
LAYER01
  6
CONTINUOUS
 62
     7
 10
17.249165
 20
-1.632581
 11
17.199165
 21
-1.682581
  0
LINE
  8
LAYER01
  6
CONTINUOUS
 62
     7
 10
17.399164
 20
-1.68258
 11
17.449164
 21
-1.63258
  0
LINE
  8
LAYER01
  6
CONTINUOUS
 62
     7
 10
17.612628
 20
-1.669113
 11
17.599162
 21
-1.682579
  0
LINE
  8
LAYER01
  6
CONTINUOUS
 62
     7
 10
17.089169
 20
-1.662586
 11
17.069839
 21
-1.681915
  0
LINE
  8
LAYER01
  6
CONTINUOUS
 62
     7
 10
17.219168
 20
-1.732584
 11
17.289168
 21
-1.662584
  0
LINE
  8
LAYER01
  6
CONTINUOUS
 62
     7
 10
17.489166
 20
-1.662583
 11
17.419166
 21
-1.732583
  0
LINE
  8
LAYER01
  6
CONTINUOUS
 62
     7
 10
17.619165
 20
-1.732581
 11
17.639226
 21
-1.71252
  0
LINE
  8
LAYER01
  6
CONTINUOUS
 62
     7
 10
17.180426
 20
-1.746977
 11
17.189174
 21
-1.742603
  0
LINE
  8
LAYER01
  6
CONTINUOUS
 62
     7
 10
17.389166
 20
-1.742587
 11
17.380409
 21
-1.746966
  0
LINE
  8
LAYER01
  6
CONTINUOUS
 62
     7
 10
17.580459
 20
-1.746954
 11
17.589172
 21
-1.742598
  0
LINE
  8
LAYER01
  6
CONTINUOUS
 62
     7
 10
17.140362
 20
-1.621986
 11
17.119165
 21
-1.632584
  0
LINE
  8
LAYER01
  6
CONTINUOUS
 62
     7
 10
17.319171
 20
-1.632595
 11
17.340386
 21
-1.621988
  0
LINE
  8
LAYER01
  6
CONTINUOUS
 62
     7
 10
17.540369
 20
-1.621976
 11
17.519163
 21
-1.632579
  0
LINE
  8
LAYER01
  6
CONTINUOUS
 62
     7
 10
17.159178
 20
-1.742609
 11
17.219178
 21
-1.712609
  0
LINE
  8
LAYER01
  6
CONTINUOUS
 62
     7
 10
17.41917
 20
-1.712593
 11
17.35917
 21
-1.742593
  0
LINE
  8
LAYER01
  6
CONTINUOUS
 62
     7
 10
17.559175
 20
-1.742604
 11
17.619175
 21
-1.712604
  0
LINE
  8
LAYER01
  6
CONTINUOUS
 62
     7
 10
17.139169
 20
-1.732591
 11
17.219169
 21
-1.692591
  0
LINE
  8
LAYER01
  6
CONTINUOUS
 62
     7
 10
17.41916
 20
-1.692575
 11
17.33916
 21
-1.732575
  0
LINE
  8
LAYER01
  6
CONTINUOUS
 62
     7
 10
17.539166
 20
-1.732586
 11
17.619166
 21
-1.692586
  0
LINE
  8
LAYER01
  6
CONTINUOUS
 62
     7
 10
17.119173
 20
-1.7226
 11
17.199173
 21
-1.6826
  0
LINE
  8
LAYER01
  6
CONTINUOUS
 62
     7
 10
17.399165
 20
-1.682583
 11
17.319165
 21
-1.722583
  0
LINE
  8
LAYER01
  6
CONTINUOUS
 62
     7
 10
17.51917
 20
-1.722595
 11
17.59917
 21
-1.682595
  0
LINE
  8
LAYER01
  6
CONTINUOUS
 62
     7
 10
17.169162
 20
-1.622578
 11
17.089162
 21
-1.662578
  0
LINE
  8
LAYER01
  6
CONTINUOUS
 62
     7
 10
17.289167
 20
-1.662589
 11
17.369167
 21
-1.622589
  0
LINE
  8
LAYER01
  6
CONTINUOUS
 62
     7
 10
17.569159
 20
-1.622573
 11
17.489159
 21
-1.662573
  0
LINE
  8
LAYER01
  6
CONTINUOUS
 62
     7
 10
17.189171
 20
-1.632596
 11
17.089171
 21
-1.682596
  0
LINE
  8
LAYER01
  6
CONTINUOUS
 62
     7
 10
17.289177
 20
-1.682607
 11
17.389177
 21
-1.632607
  0
LINE
  8
LAYER01
  6
CONTINUOUS
 62
     7
 10
17.589169
 20
-1.632591
 11
17.489169
 21
-1.682591
  0
LINE
  8
LAYER01
  6
CONTINUOUS
 62
     7
 10
17.199166
 20
-1.652585
 11
17.099166
 21
-1.702585
  0
LINE
  8
LAYER01
  6
CONTINUOUS
 62
     7
 10
17.299171
 20
-1.702596
 11
17.399171
 21
-1.652596
  0
LINE
  8
LAYER01
  6
CONTINUOUS
 62
     7
 10
17.599163
 20
-1.65258
 11
17.499163
 21
-1.70258
  0
LINE
  8
LAYER01
  6
CONTINUOUS
 62
     7
 10
17.114454
 20
-1.621957
 11
17.109147
 21
-1.632571
  0
LINE
  8
LAYER01
  6
CONTINUOUS
 62
     7
 10
17.314433
 20
-1.621986
 11
17.309142
 21
-1.632569
  0
LINE
  8
LAYER01
  6
CONTINUOUS
 62
     7
 10
17.514426
 20
-1.621988
 11
17.509137
 21
-1.632566
  0
LINE
  8
LAYER01
  6
CONTINUOUS
 62
     7
 10
17.099456
 20
-1.621969
 11
17.089153
 21
-1.642574
  0
LINE
  8
LAYER01
  6
CONTINUOUS
 62
     7
 10
17.299448
 20
-1.621971
 11
17.289148
 21
-1.642572
  0
LINE
  8
LAYER01
  6
CONTINUOUS
 62
     7
 10
17.499441
 20
-1.621973
 11
17.489143
 21
-1.642569
  0
LINE
  8
LAYER01
  6
CONTINUOUS
 62
     7
 10
17.079467
 20
-1.621968
 11
17.069162
 21
-1.642579
  0
LINE
  8
LAYER01
  6
CONTINUOUS
 62
     7
 10
17.27946
 20
-1.62197
 11
17.269157
 21
-1.642576
  0
LINE
  8
LAYER01
  6
CONTINUOUS
 62
     7
 10
17.479453
 20
-1.621972
 11
17.469152
 21
-1.642574
  0
LINE
  8
LAYER01
  6
CONTINUOUS
 62
     7
 10
17.249168
 20
-1.632582
 11
17.254468
 21
-1.621981
  0
LINE
  8
LAYER01
  6
CONTINUOUS
 62
     7
 10
17.449163
 20
-1.632579
 11
17.45446
 21
-1.621984
  0
LINE
  8
LAYER01
  6
CONTINUOUS
 62
     7
 10
17.219159
 20
-1.732577
 11
17.211958
 21
-1.746979
  0
LINE
  8
LAYER01
  6
CONTINUOUS
 62
     7
 10
17.419154
 20
-1.732575
 11
17.411951
 21
-1.746981
  0
LINE
  8
LAYER01
  6
CONTINUOUS
 62
     7
 10
17.619176
 20
-1.732586
 11
17.611984
 21
-1.74697
  0
LINE
  8
LAYER01
  6
CONTINUOUS
 62
     7
 10
17.069142
 20
-1.732569
 11
17.067035
 21
-1.736785
  0
LINE
  8
LAYER01
  6
CONTINUOUS
 62
     7
 10
17.219153
 20
-1.632575
 11
17.224458
 21
-1.621966
  0
LINE
  8
LAYER01
  6
CONTINUOUS
 62
     7
 10
17.269137
 20
-1.732566
 11
17.261929
 21
-1.746983
  0
LINE
  8
LAYER01
  6
CONTINUOUS
 62
     7
 10
17.419148
 20
-1.632572
 11
17.424451
 21
-1.621968
  0
LINE
  8
LAYER01
  6
CONTINUOUS
 62
     7
 10
17.469132
 20
-1.732564
 11
17.461922
 21
-1.746985
  0
LINE
  8
LAYER01
  6
CONTINUOUS
 62
     7
 10
17.199164
 20
-1.62258
 11
17.199466
 21
-1.621977
  0
LINE
  8
LAYER01
  6
CONTINUOUS
 62
     7
 10
17.249148
 20
-1.722572
 11
17.23695
 21
-1.746968
  0
LINE
  8
LAYER01
  6
CONTINUOUS
 62
     7
 10
17.399159
 20
-1.622577
 11
17.399458
 21
-1.621979
  0
LINE
  8
LAYER01
  6
CONTINUOUS
 62
     7
 10
17.449143
 20
-1.722569
 11
17.436943
 21
-1.74697
  0
LINE
  8
LAYER01
  6
CONTINUOUS
 62
     7
 10
17.599154
 20
-1.622575
 11
17.599451
 21
-1.621981
  0
ENDBLK
  8
0
  0
BLOCK
  8
LAYER01
  2
CHEROKEE-G33
 70
     0
 10
0.0
 20
0.0
  0
LINE
  8
LAYER01
  6
CONTINUOUS
 62
     7
 10
17.919163
 20
-1.632578
 11
17.909163
 21
-1.632578
  0
LINE
  8
LAYER01
  6
CONTINUOUS
 62
     7
 10
17.719163
 20
-1.632578
 11
17.709163
 21
-1.632578
  0
LINE
  8
LAYER01
  6
CONTINUOUS
 62
     7
 10
17.789155
 20
-1.742579
 11
17.789155
 21
-1.746961
  0
LINE
  8
LAYER01
  6
CONTINUOUS
 62
     7
 10
17.989147
 20
-1.746961
 11
17.989147
 21
-1.742579
  0
LINE
  8
LAYER01
  6
CONTINUOUS
 62
     7
 10
17.789159
 20
-1.742587
 11
17.799157
 21
-1.732589
  0
LINE
  8
LAYER01
  6
CONTINUOUS
 62
     7
 10
17.819154
 20
-1.712592
 11
17.889158
 21
-1.642588
  0
LINE
  8
LAYER01
  6
CONTINUOUS
 62
     7
 10
18.081843
 20
-1.649906
 11
18.019156
 21
-1.712593
  0
LINE
  8
LAYER01
  6
CONTINUOUS
 62
     7
 10
17.999159
 20
-1.73259
 11
17.98916
 21
-1.742589
  0
LINE
  8
LAYER01
  6
CONTINUOUS
 62
     7
 10
17.709159
 20
-1.632575
 11
17.699159
 21
-1.642575
  0
LINE
  8
LAYER01
  6
CONTINUOUS
 62
     7
 10
17.89916
 20
-1.642577
 11
17.90916
 21
-1.632577
  0
LINE
  8
LAYER01
  6
CONTINUOUS
 62
     7
 10
17.769766
 20
-1.621983
 11
17.769166
 21
-1.622583
  0
LINE
  8
LAYER01
  6
CONTINUOUS
 62
     7
 10
17.969168
 20
-1.622584
 11
17.969785
 21
-1.621968
  0
LINE
  8
LAYER01
  6
CONTINUOUS
 62
     7
 10
17.799168
 20
-1.622585
 11
17.789168
 21
-1.632585
  0
LINE
  8
LAYER01
  6
CONTINUOUS
 62
     7
 10
17.98917
 20
-1.632586
 11
17.99917
 21
-1.622586
  0
LINE
  8
LAYER01
  6
CONTINUOUS
 62
     7
 10
17.81917
 20
-1.632586
 11
17.79917
 21
-1.652586
  0
LINE
  8
LAYER01
  6
CONTINUOUS
 62
     7
 10
17.999171
 20
-1.652588
 11
18.019171
 21
-1.632588
  0
LINE
  8
LAYER01
  6
CONTINUOUS
 62
     7
 10
17.759163
 20
-1.74258
 11
17.754773
 21
-1.746969
  0
LINE
  8
LAYER01
  6
CONTINUOUS
 62
     7
 10
17.954778
 20
-1.746968
 11
17.959164
 21
-1.742581
  0
LINE
  8
LAYER01
  6
CONTINUOUS
 62
     7
 10
17.849162
 20
-1.722579
 11
17.889162
 21
-1.682579
  0
LINE
  8
LAYER01
  6
CONTINUOUS
 62
     7
 10
18.081846
 20
-1.689898
 11
18.049164
 21
-1.72258
  0
LINE
  8
LAYER01
  6
CONTINUOUS
 62
     7
 10
17.739161
 20
-1.732578
 11
17.724772
 21
-1.746967
  0
LINE
  8
LAYER01
  6
CONTINUOUS
 62
     7
 10
17.924777
 20
-1.746966
 11
17.939163
 21
-1.732579
  0
LINE
  8
LAYER01
  6
CONTINUOUS
 62
     7
 10
17.869164
 20
-1.73258
 11
17.899164
 21
-1.70258
  0
LINE
  8
LAYER01
  6
CONTINUOUS
 62
     7
 10
18.081848
 20
-1.719899
 11
18.069165
 21
-1.732582
  0
LINE
  8
LAYER01
  6
CONTINUOUS
 62
     7
 10
17.894775
 20
-1.746964
 11
17.919161
 21
-1.722578
  0
LINE
  8
LAYER01
  6
CONTINUOUS
 62
     7
 10
17.869159
 20
-1.642575
 11
17.819159
 21
-1.692575
  0
LINE
  8
LAYER01
  6
CONTINUOUS
 62
     7
 10
18.01916
 20
-1.692577
 11
18.06916
 21
-1.642577
  0
LINE
  8
LAYER01
  6
CONTINUOUS
 62
     7
 10
17.849171
 20
-1.632588
 11
17.799171
 21
-1.682588
  0
LINE
  8
LAYER01
  6
CONTINUOUS
 62
     7
 10
17.999173
 20
-1.68259
 11
18.049173
 21
-1.63259
  0
LINE
  8
LAYER01
  6
CONTINUOUS
 62
     7
 10
17.819171
 20
-1.732587
 11
17.889171
 21
-1.662587
  0
LINE
  8
LAYER01
  6
CONTINUOUS
 62
     7
 10
18.081844
 20
-1.669916
 11
18.019172
 21
-1.732589
  0
LINE
  8
LAYER01
  6
CONTINUOUS
 62
     7
 10
17.780345
 20
-1.746976
 11
17.789158
 21
-1.74257
  0
LINE
  8
LAYER01
  6
CONTINUOUS
 62
     7
 10
17.989152
 20
-1.742558
 11
17.980348
 21
-1.74696
  0
LINE
  8
LAYER01
  6
CONTINUOUS
 62
     7
 10
17.740385
 20
-1.621959
 11
17.719159
 21
-1.632572
  0
LINE
  8
LAYER01
  6
CONTINUOUS
 62
     7
 10
17.919162
 20
-1.632578
 11
17.940379
 21
-1.62197
  0
LINE
  8
LAYER01
  6
CONTINUOUS
 62
     7
 10
17.759159
 20
-1.742572
 11
17.819159
 21
-1.712572
  0
LINE
  8
LAYER01
  6
CONTINUOUS
 62
     7
 10
18.019153
 20
-1.71256
 11
17.959153
 21
-1.74256
  0
LINE
  8
LAYER01
  6
CONTINUOUS
 62
     7
 10
17.739164
 20
-1.732582
 11
17.819164
 21
-1.692582
  0
LINE
  8
LAYER01
  6
CONTINUOUS
 62
     7
 10
18.019158
 20
-1.69257
 11
17.939158
 21
-1.73257
  0
LINE
  8
LAYER01
  6
CONTINUOUS
 62
     7
 10
17.726737
 20
-1.718785
 11
17.79916
 21
-1.682574
  0
LINE
  8
LAYER01
  6
CONTINUOUS
 62
     7
 10
17.999154
 20
-1.682561
 11
17.919154
 21
-1.722561
  0
LINE
  8
LAYER01
  6
CONTINUOUS
 62
     7
 10
17.769158
 20
-1.622569
 11
17.689628
 21
-1.662334
  0
LINE
  8
LAYER01
  6
CONTINUOUS
 62
     7
 10
17.889161
 20
-1.662575
 11
17.969161
 21
-1.622575
  0
LINE
  8
LAYER01
  6
CONTINUOUS
 62
     7
 10
17.789162
 20
-1.632578
 11
17.704061
 21
-1.675128
  0
LINE
  8
LAYER01
  6
CONTINUOUS
 62
     7
 10
17.889165
 20
-1.682584
 11
17.989165
 21
-1.632584
  0
LINE
  8
LAYER01
  6
CONTINUOUS
 62
     7
 10
17.799163
 20
-1.652579
 11
17.724739
 21
-1.689791
  0
LINE
  8
LAYER01
  6
CONTINUOUS
 62
     7
 10
17.899166
 20
-1.702585
 11
17.999166
 21
-1.652585
  0
LINE
  8
LAYER01
  6
CONTINUOUS
 62
     7
 10
17.714475
 20
-1.621972
 11
17.709169
 21
-1.632582
  0
LINE
  8
LAYER01
  6
CONTINUOUS
 62
     7
 10
17.914466
 20
-1.621973
 11
17.909163
 21
-1.632579
  0
LINE
  8
LAYER01
  6
CONTINUOUS
 62
     7
 10
17.889184
 20
-1.64259
 11
17.899493
 21
-1.621972
  0
LINE
  8
LAYER01
  6
CONTINUOUS
 62
     7
 10
17.869176
 20
-1.642586
 11
17.879483
 21
-1.621971
  0
LINE
  8
LAYER01
  6
CONTINUOUS
 62
     7
 10
18.06917
 20
-1.642583
 11
18.079474
 21
-1.621973
  0
LINE
  8
LAYER01
  6
CONTINUOUS
 62
     7
 10
17.849174
 20
-1.632585
 11
17.854482
 21
-1.62197
  0
LINE
  8
LAYER01
  6
CONTINUOUS
 62
     7
 10
18.049168
 20
-1.632582
 11
18.054473
 21
-1.621971
  0
LINE
  8
LAYER01
  6
CONTINUOUS
 62
     7
 10
17.811986
 20
-1.746982
 11
17.819183
 21
-1.732589
  0
LINE
  8
LAYER01
  6
CONTINUOUS
 62
     7
 10
18.011987
 20
-1.746965
 11
18.019177
 21
-1.732586
  0
LINE
  8
LAYER01
  6
CONTINUOUS
 62
     7
 10
17.81918
 20
-1.632588
 11
17.82448
 21
-1.621987
  0
LINE
  8
LAYER01
  6
CONTINUOUS
 62
     7
 10
17.869167
 20
-1.732582
 11
17.86197
 21
-1.746976
  0
LINE
  8
LAYER01
  6
CONTINUOUS
 62
     7
 10
18.019174
 20
-1.632585
 11
18.024481
 21
-1.62197
  0
LINE
  8
LAYER01
  6
CONTINUOUS
 62
     7
 10
18.06918
 20
-1.732588
 11
18.061989
 21
-1.746968
  0
LINE
  8
LAYER01
  6
CONTINUOUS
 62
     7
 10
17.799479
 20
-1.621985
 11
17.799178
 21
-1.622587
  0
LINE
  8
LAYER01
  6
CONTINUOUS
 62
     7
 10
17.836987
 20
-1.746984
 11
17.849184
 21
-1.72259
  0
LINE
  8
LAYER01
  6
CONTINUOUS
 62
     7
 10
17.99948
 20
-1.621968
 11
17.999172
 21
-1.622584
  0
LINE
  8
LAYER01
  6
CONTINUOUS
 62
     7
 10
18.036988
 20
-1.746967
 11
18.049178
 21
-1.722587
  0
ENDBLK
  8
0
  0
BLOCK
  8
LAYER01
  2
CHEROKEE-G34
 70
     0
 10
0.0
 20
0.0
  0
LINE
  8
LAYER01
  6
CONTINUOUS
 62
     7
 10
12.120956
 20
-1.042506
 11
11.967464
 21
-1.195998
  0
LINE
  8
LAYER01
  6
CONTINUOUS
 62
     7
 10
12.145996
 20
-1.105857
 11
12.055853
 21
-1.195999
  0
LINE
  8
LAYER01
  6
CONTINUOUS
 62
     7
 10
12.145997
 20
-1.194246
 11
12.144243
 21
-1.196
  0
LINE
  8
LAYER01
  6
CONTINUOUS
 62
     7
 10
11.855774
 20
-1.042517
 11
11.771004
 21
-1.127287
  0
ENDBLK
  8
0
  0
BLOCK
  8
LAYER01
  2
CHEROKEE-G35
 70
     0
 10
0.0
 20
0.0
  0
LINE
  8
LAYER01
  6
CONTINUOUS
 62
     7
 10
13.732936
 20
-1.021504
 11
13.71193
 21
-1.04251
  0
LINE
  8
LAYER01
  6
CONTINUOUS
 62
     7
 10
13.467747
 20
-1.021507
 11
13.446741
 21
-1.042513
  0
ENDBLK
  8
0
  0
BLOCK
  8
LAYER01
  2
CHEROKEE-G36
 70
     0
 10
0.0
 20
0.0
  0
LINE
  8
LAYER01
  6
CONTINUOUS
 62
     7
 10
13.711932
 20
-1.042506
 11
13.558426
 21
-1.196011
  0
LINE
  8
LAYER01
  6
CONTINUOUS
 62
     7
 10
13.769675
 20
-1.073153
 11
13.646829
 21
-1.195999
  0
LINE
  8
LAYER01
  6
CONTINUOUS
 62
     7
 10
13.769676
 20
-1.161542
 11
13.735219
 21
-1.196
  0
LINE
  8
LAYER01
  6
CONTINUOUS
 62
     7
 10
13.446777
 20
-1.042516
 11
13.394683
 21
-1.09461
  0
ENDBLK
  8
0
  0
ENDSEC
  0
SECTION
  2
ENTITIES
  0
LINE
  8
LAYER01
  6
CONTINUOUS
 62
     7
 10
-7.085837
 20
2.412421
 11
25.919163
 21
2.412421
  0
LINE
  8
LAYER01
  6
CONTINUOUS
 62
     7
 10
-7.085837
 20
2.402421
 11
25.919163
 21
2.402421
  0
LINE
  8
LAYER01
  6
CONTINUOUS
 62
     7
 10
-7.085837
 20
2.412421
 11
-7.085837
 21
2.402421
  0
LINE
  8
LAYER01
  6
CONTINUOUS
 62
     7
 10
25.919163
 20
2.412421
 11
25.919163
 21
2.402421
  0
SOLID
  8
LAYER01
  6
CONTINUOUS
 62
     7
 10
-7.085837
 20
2.412421
 11
25.919163
 21
2.412421
 12
-7.085837
 22
2.402421
 13
25.919163
 23
2.402421
  0
LINE
  8
LAYER01
  6
CONTINUOUS
 62
     7
 10
25.924163
 20
-17.597579
 11
-7.085837
 21
-17.597579
  0
LINE
  8
LAYER01
  6
CONTINUOUS
 62
     7
 10
25.924163
 20
-17.587579
 11
-7.085837
 21
-17.587579
  0
LINE
  8
LAYER01
  6
CONTINUOUS
 62
     7
 10
25.924163
 20
-17.597579
 11
25.924163
 21
-17.587579
  0
LINE
  8
LAYER01
  6
CONTINUOUS
 62
     7
 10
-7.085837
 20
-17.597579
 11
-7.085837
 21
-17.587579
  0
SOLID
  8
LAYER01
  6
CONTINUOUS
 62
     7
 10
25.924163
 20
-17.597579
 11
-7.085837
 21
-17.597579
 12
25.924163
 22
-17.587579
 13
-7.085837
 23
-17.587579
  0
DIMENSION
  8
LAYER01
 62
     7
  2
*D0
 10
14.230496
 20
-6.723107
 11
5.276863
 21
-6.519982
 13
-3.769504
 23
-9.740847
 14
14.230496
 24
-9.740847
  0
DIMENSION
  8
LAYER01
 62
     7
  2
*D1
 10
19.730496
 20
-5.84618
 11
8.115888
 21
-5.643055
 13
-3.769504
 23
-9.740847
 14
19.730496
 24
-10.403347
  0
DIMENSION
  8
LAYER01
 62
     7
  2
*D2
 10
13.769687
 20
-3.330492
 11
10.942049
 21
-3.127367
 13
7.897043
 23
-2.172008
 14
13.769687
 24
-2.346508
  0
DIMENSION
  8
LAYER01
 62
     7
  2
*D3
 10
8.394687
 20
-2.86844
 11
10.378808
 21
-2.665315
 13
12.14556
 23
-2.346508
 14
8.394687
 24
-2.346385
  0
LINE
  8
LAYER01
  6
CONTINUOUS
 62
     7
 10
7.897043
 20
-2.159008
 11
13.770225
 21
-2.159008
  0
LINE
  8
LAYER01
  6
CONTINUOUS
 62
     7
 10
7.897043
 20
-2.172008
 11
13.769687
 21
-2.172008
  0
POLYLINE
  8
LAYER01
  6
CONTINUOUS
 62
     7
 66
     1
  0
VERTEX
  8
LAYER01
 10
-3.469878
 20
-11.065847
  0
VERTEX
  8
LAYER01
 10
-3.769504
 20
-11.065847
  0
VERTEX
  8
LAYER01
 10
-3.769504
 20
-9.740847
  0
VERTEX
  8
LAYER01
 10
14.230496
 20
-9.740847
  0
VERTEX
  8
LAYER01
 10
14.230496
 20
-11.065847
  0
VERTEX
  8
LAYER01
 10
-0.098073
 20
-11.065847
  0
SEQEND
  8
LAYER01
  0
LINE
  8
LAYER01
  6
CONTINUOUS
 62
     7
 10
11.262139
 20
1.369361
 11
9.484044
 21
0.965253
  0
POLYLINE
  8
LAYER01
  6
CONTINUOUS
 62
     7
 66
     1
 70
     1
  0
VERTEX
  8
LAYER01
 10
11.408979
 20
1.2855
 42
0.389232
  0
VERTEX
  8
LAYER01
 10
11.262139
 20
1.369361
  0
VERTEX
  8
LAYER01
 10
9.484044
 20
0.965253
 42
0.238288
  0
VERTEX
  8
LAYER01
 10
9.136434
 20
0.677581
  0
VERTEX
  8
LAYER01
 10
8.394687
 20
-1.021508
  0
VERTEX
  8
LAYER01
 10
8.769687
 20
-1.021508
  0
VERTEX
  8
LAYER01
 10
8.769687
 20
-1.209008
  0
VERTEX
  8
LAYER01
 10
8.772654
 20
-1.209008
  0
VERTEX
  8
LAYER01
 10
11.771007
 20
-1.209008
  0
VERTEX
  8
LAYER01
 10
11.771007
 20
-1.021508
  0
VERTEX
  8
LAYER01
 10
12.146007
 20
-1.021508
  0
VERTEX
  8
LAYER01
 10
12.146007
 20
-1.019205
  0
SEQEND
  8
LAYER01
  0
INSERT
  8
LAYER01
  2
CHEROKEE-G5
 10
0.0
 20
0.0
  0
LINE
  8
LAYER01
  6
CONTINUOUS
 62
     7
 10
8.772654
 20
-1.209008
 11
11.771007
 21
-1.209008
  0
LINE
  8
LAYER01
  6
CONTINUOUS
 62
     7
 10
8.394687
 20
-2.325508
 11
14.671811
 21
-2.325508
  0
LINE
  8
LAYER01
  6
CONTINUOUS
 62
     7
 10
8.694313
 20
-2.346508
 11
12.066118
 21
-2.346508
  0
LINE
  8
LAYER01
  6
CENTER
 62
     7
 10
6.894687
 20
-1.684008
 11
15.394687
 21
-1.684008
  0
DIMENSION
  8
LAYER01
 62
     7
  2
*D5
 10
7.897043
 20
-2.867473
 11
9.315079
 21
-2.664348
 13
8.394687
 23
-2.346508
 14
7.897043
 24
-2.172008
  0
LINE
  8
LAYER01
  6
CONTINUOUS
 62
     7
 10
-7.085837
 20
-17.592579
 11
-7.085837
 21
2.407421
  0
LINE
  8
LAYER01
  6
CONTINUOUS
 62
     7
 10
-7.075837
 20
-17.592579
 11
-7.075837
 21
2.407421
  0
LINE
  8
LAYER01
  6
CONTINUOUS
 62
     7
 10
-7.085837
 20
-17.592579
 11
-7.075837
 21
-17.592579
  0
LINE
  8
LAYER01
  6
CONTINUOUS
 62
     7
 10
-7.085837
 20
2.407421
 11
-7.075837
 21
2.407421
  0
SOLID
  8
LAYER01
  6
CONTINUOUS
 62
     7
 10
-7.085837
 20
-17.592579
 11
-7.085837
 21
2.407421
 12
-7.075837
 22
-17.592579
 13
-7.075837
 23
2.407421
  0
TEXT
  8
LAYER01
  6
CONTINUOUS
 62
     7
 10
-5.511811
 20
-13.385827
 40
0.25
  1
Construction Notes:
  0
TEXT
  8
LAYER01
  6
CONTINUOUS
 62
     7
 10
-5.511811
 20
-13.635827
 40
0.25
  1
1 - Original kit had paper fillets on fins.
  0
TEXT
  8
LAYER01
  6
CONTINUOUS
 62
     7
 10
-5.511811
 20
-13.885827
 40
0.25
  1
2 - Original kit had two piece fins.
  0
TEXT
  8
LAYER01
  6
CONTINUOUS
 62
     7
 10
-5.511811
 20
-14.135827
 40
0.25
  1
3 - Use engine hook if preferred.
  0
TEXT
  8
LAYER01
  6
CONTINUOUS
 62
     7
 10
-5.511811
 20
-14.385827
 40
0.25
  1
4 - Original kit had launch lugs on standoffs 
  0
TEXT
  8
LAYER01
  6
CONTINUOUS
 62
     7
 10
-5.511811
 20
-14.635827
 40
0.25
  1
     for the Estes 'C' rail launcher.
  0
TEXT
  8
LAYER01
  6
CONTINUOUS
 62
     7
 10
-5.511811
 20
-14.885827
 40
0.25
  1
5 - Through the wall fin mounting is optional.
  0
TEXT
  8
LAYER01
  6
CONTINUOUS
 62
     7
 10
-5.511811
 20
-15.135827
 40
0.25
  1
6 - Use 'glue rivets' if surface mounting fins 
  0
TEXT
  8
LAYER01
  6
CONTINUOUS
 62
     7
 10
-5.511811
 20
-15.385827
 40
0.25
  1
     and epoxy fillets.
  0
TEXT
  8
LAYER01
  6
CONTINUOUS
 62
     7
 10
-5.511811
 20
-15.635827
 40
0.25
  1
7 - Since BT-55 is thin, you might need to add 
  0
TEXT
  8
LAYER01
  6
CONTINUOUS
 62
     7
 10
-5.511811
 20
-15.885827
 40
0.25
  1
     another AR-5055 in the middle of the fin 
  0
TEXT
  8
LAYER01
  6
CONTINUOUS
 62
     7
 10
-5.511811
 20
-16.135827
 40
0.25
  1
     slots to keep the tube round. Be sure to 
  0
TEXT
  8
LAYER01
  6
CONTINUOUS
 62
     7
 10
-5.511811
 20
-16.385827
 40
0.25
  1
     cut a notch in the fin tabs for this.
  0
TEXT
  8
LAYER01
  6
CONTINUOUS
 62
     7
 10
-5.511811
 20
-16.635827
 40
0.25
  1
8 - Use 2 1/8" dia x 1/2" long launch lugs. Mount
  0
TEXT
  8
LAYER01
  6
CONTINUOUS
 62
     7
 10
-5.511811
 20
-16.885827
 40
0.25
  1
     at top and bottom of body tube.
  0
TEXT
  8
LAYER01
  6
CONTINUOUS
 62
     7
 10
-5.511811
 20
-17.135827
 40
0.25
  1
9 - Dry fit everything BEFORE gluing!
  0
TEXT
  8
LAYER01
  6
CONTINUOUS
 62
     7
 10
-5.511811
 20
-17.385827
 40
0.25
  1

  0
DIMENSION
  8
LAYER01
 62
     7
  2
*D6
 10
-4.268869
 20
-9.118062
 11
-2.849112
 21
-8.914937
 13
-3.769504
 23
-9.740847
 14
-4.268869
 24
-9.740847
  0
LINE
  8
LAYER01
  6
CONTINUOUS
 62
     7
 10
-3.717342
 20
-10.700709
 11
0.034627
 21
-10.702607
  0
LINE
  8
LAYER01
  6
CONTINUOUS
 62
     7
 10
-3.717342
 20
-10.700709
 11
-2.899993
 21
-11.906724
  0
LINE
  8
LAYER01
  6
CONTINUOUS
 62
     7
 10
-3.769504
 20
-9.740847
 11
-0.017535
 21
-9.740576
  0
LINE
  8
LAYER01
  6
CONTINUOUS
 62
     7
 10
-3.769504
 20
-9.740847
 11
-3.027757
 21
-8.041758
  0
DIMENSION
  8
LAYER01
 62
     7
  2
*D7
 10
-4.621189
 20
-11.065847
 11
-4.824314
 21
-10.267955
 13
-3.769504
 23
-9.740847
 14
-3.769504
 24
-11.065847
 50
90.0
 53
90.0
  0
LINE
  8
LAYER01
  6
CONTINUOUS
 62
     7
 10
-3.768869
 20
-9.874559
 11
-4.268869
 21
-9.874559
  0
LINE
  8
LAYER01
  6
CONTINUOUS
 62
     7
 10
-3.768869
 20
-10.850559
 11
-4.268869
 21
-10.850559
  0
LINE
  8
LAYER01
  6
CONTINUOUS
 62
     7
 10
-4.268869
 20
-10.850559
 11
-4.268869
 21
-9.866158
  0
LINE
  8
LAYER01
  6
CONTINUOUS
 62
     7
 10
-0.774588
 20
-12.599426
 11
-2.552507
 21
-12.194546
  0
LINE
  8
LAYER01
  6
CONTINUOUS
 62
     7
 10
0.034627
 20
-10.702607
 11
-0.627712
 21
-12.515628
  0
ARC
  8
LAYER01
  6
CONTINUOUS
 62
     7
 10
-0.746818
 20
-12.477482
 40
0.125066
 50
257.17101
 51
342.241256
  0
ARC
  8
LAYER01
  6
CONTINUOUS
 62
     7
 10
-2.441428
 20
-11.706772
 40
0.500263
 50
203.559107
 51
257.17101
  0
LINE
  8
LAYER01
  6
CONTINUOUS
 62
     7
 10
-0.017535
 20
-9.740576
 11
-0.755213
 21
-7.433839
  0
ARC
  8
LAYER01
  6
CONTINUOUS
 62
     7
 10
-0.874335
 20
-7.471934
 40
0.125066
 50
17.733898
 51
102.804144
  0
ARC
  8
LAYER01
  6
CONTINUOUS
 62
     7
 10
-2.569279
 20
-8.241909
 40
0.500263
 50
102.804144
 51
156.416047
  0
LINE
  8
LAYER01
  6
CONTINUOUS
 62
     7
 10
-0.902052
 20
-7.349978
 11
-2.680147
 21
-7.754086
  0
TEXT
  8
LAYER01
  6
CONTINUOUS
 62
     7
 10
1.574803
 20
-13.385827
 40
0.25
  1
Use an 18" parachute for recovery.
  0
TEXT
  8
LAYER01
  6
CONTINUOUS
 62
     7
 10
1.574803
 20
-13.635827
 40
0.25
  1
Tie a 24" piece of Kelvar around the front
  0
TEXT
  8
LAYER01
  6
CONTINUOUS
 62
     7
 10
1.574803
 20
-13.885827
 40
0.25
  1
AR-5055 ring before gluing the engine mount 
  0
TEXT
  8
LAYER01
  6
CONTINUOUS
 62
     7
 10
1.574803
 20
-14.135827
 40
0.25
  1
assembly in place. Tie a 24" length of 1/4" 
  0
TEXT
  8
LAYER01
  6
CONTINUOUS
 62
     7
 10
1.574803
 20
-14.385827
 40
0.25
  1
sewing elastic to the Kelvar. Tie the other end 
  0
TEXT
  8
LAYER01
  6
CONTINUOUS
 62
     7
 10
1.574803
 20
-14.635827
 40
0.25
  1
of the elastic to the nose cone. Attach the chute 
  0
TEXT
  8
LAYER01
  6
CONTINUOUS
 62
     7
 10
1.574803
 20
-14.885827
 40
0.25
  1
to the nose cone.
  0
LINE
  8
LAYER01
 62
     7
 10
5.392195
 20
-11.068699
 11
5.758554
 21
-11.618237
  0
LINE
  8
LAYER01
 62
     7
 10
5.758554
 20
-11.618237
 11
6.418
 21
-11.618237
  0
LINE
  8
LAYER01
 62
     7
 10
5.4572
 20
-11.213152
 11
5.392195
 21
-11.068699
  0
LINE
  8
LAYER01
 62
     7
 10
5.500534
 20
-11.184262
 11
5.392195
 21
-11.068699
  0
TEXT
  8
LAYER01
  6
CONTINUOUS
 62
     7
 10
6.519563
 20
-11.7198
 40
0.203125
  1
BT-55
  0
INSERT
  8
LAYER01
  2
CHEROKEE-G9
 10
0.0
 20
0.0
  0
DIMENSION
  8
LAYER01
 62
     7
  2
*D9
 10
0.000271
 20
-4.447911
 11
1.196929
 21
-4.244786
 13
0.175271
 23
-3.441776
 14
0.000271
 24
-3.75197
  0
LINE
  8
LAYER01
 62
     7
 10
0.000265
 20
-3.667545
 11
0.603181
 21
-4.164584
  0
LINE
  8
LAYER01
 62
     7
 10
0.603181
 20
-4.164584
 11
1.07813
 21
-4.164584
  0
LINE
  8
LAYER01
 62
     7
 10
0.104264
 20
-3.787029
 11
0.000265
 21
-3.667545
  0
LINE
  8
LAYER01
 62
     7
 10
0.137393
 20
-3.746843
 11
0.000265
 21
-3.667545
  0
TEXT
  8
LAYER01
  6
CONTINUOUS
 62
     7
 10
1.179692
 20
-4.266146
 40
0.203125
  1
Notch for AR-5055 centering ring
  0
TEXT
  8
LAYER01
  6
CONTINUOUS
 62
     7
 10
1.179692
 20
-4.469271
 40
0.203125
  1
mounted flush with rear of tube.
  0
DIMENSION
  8
LAYER01
 62
     7
  2
*D10
 10
0.74818
 20
0.0
 11
0.545055
 21
-1.7673
 13
0.000271
 23
-3.75197
 50
90.0
 53
90.0
  0
LINE
  8
LAYER01
  6
CONTINUOUS
 62
     7
 10
0.175271
 20
-3.441776
 11
0.175271
 21
-0.302121
  0
LINE
  8
LAYER01
  6
CONTINUOUS
 62
     7
 10
0.0
 20
0.0
 11
0.000271
 21
-3.751776
  0
LINE
  8
LAYER01
  6
CONTINUOUS
 62
     7
 10
-2.390598
 20
-0.884517
 11
-1.986489
 21
-2.662612
  0
LINE
  8
LAYER01
  6
HIDDEN
 62
     7
 10
0.000271
 20
-3.441776
 11
0.175271
 21
-3.441776
  0
INSERT
  8
LAYER01
  2
CHEROKEE-G12
 10
0.0
 20
0.0
  0
INSERT
  8
LAYER01
  2
CHEROKEE-G13
 10
0.0
 20
0.0
  0
INSERT
  8
LAYER01
  2
CHEROKEE-G14
 10
0.0
 20
0.0
  0
ARC
  8
LAYER01
  6
CONTINUOUS
 62
     7
 10
-1.498667
 20
-2.551744
 40
0.500263
 50
192.804144
 51
246.416047
  0
LINE
  8
LAYER01
  6
CONTINUOUS
 62
     7
 10
0.000271
 20
-3.75197
 11
-1.698818
 21
-3.010222
  0
TEXT
  8
LAYER01
  6
CONTINUOUS
 62
     7
 10
-5.975904
 20
0.451231
 40
0.25
  1
Make 3 from 1/8" basswood or aircraft plywood
  0
LINE
  8
LAYER01
 62
     7
 10
-1.153368
 20
-0.368839
 11
-1.738426
 21
-0.011544
  0
LINE
  8
LAYER01
 62
     7
 10
-1.738426
 20
-0.011544
 11
-2.268602
 21
-0.011544
  0
LINE
  8
LAYER01
 62
     7
 10
-1.273146
 20
-0.265178
 11
-1.153368
 21
-0.368839
  0
LINE
  8
LAYER01
 62
     7
 10
-1.30029
 20
-0.309626
 11
-1.153368
 21
-0.368839
  0
TEXT
  8
LAYER01
  6
CONTINUOUS
 62
     7
 10
-5.054267
 20
-0.113107
 40
0.203125
  1
Leading Edge (grain follows)
  0
DIMENSION
  8
LAYER01
 62
     7
  2
*D14
 10
0.464356
 20
-0.31
 11
0.261231
 21
1.021658
 13
0.0
 23
0.0
 14
0.175271
 24
-0.31
 50
90.0
 53
90.0
  0
LINE
  8
LAYER01
  6
CONTINUOUS
 62
     7
 10
0.0
 20
-0.31
 11
0.175271
 21
-0.31
  0
LINE
  8
LAYER01
  6
CONTINUOUS
 62
     7
 10
-0.929014
 20
-0.617265
 11
-0.254523
 21
-0.410874
  0
LINE
  8
LAYER01
  6
CONTINUOUS
 62
     7
 10
0.0
 20
0.0
 11
-2.306737
 21
-0.737678
  0
TEXT
  8
LAYER01
  6
CONTINUOUS
 62
     7
 10
-1.631251
 20
-0.917403
 40
0.25
  1
Grain
  0
ARC
  8
LAYER01
  6
CONTINUOUS
 62
     7
 10
-2.268642
 20
-0.8568
 40
0.125066
 50
107.733898
 51
192.804144
  0
LINE
  8
LAYER01
  6
CONTINUOUS
 62
     7
 10
-2.182391
 20
-0.973025
 11
-1.732731
 21
-0.835431
  0
LINE
  8
LAYER01
  6
CONTINUOUS
 62
     7
 10
-2.179465
 20
-0.982587
 11
-1.729805
 21
-0.844993
  0
LINE
  8
LAYER01
  6
CONTINUOUS
 62
     7
 10
-2.182391
 20
-0.973025
 11
-2.179465
 21
-0.982587
  0
LINE
  8
LAYER01
  6
CONTINUOUS
 62
     7
 10
-1.732731
 20
-0.835431
 11
-1.729805
 21
-0.844993
  0
SOLID
  8
LAYER01
  6
CONTINUOUS
 62
     7
 10
-2.182391
 20
-0.973025
 11
-1.732731
 21
-0.835431
 12
-2.179465
 22
-0.982587
 13
-1.729805
 23
-0.844993
  0
LINE
  8
LAYER01
  6
CONTINUOUS
 62
     7
 10
7.897043
 20
-1.196008
 11
7.897043
 21
-2.172008
  0
POLYLINE
  8
LAYER01
  6
CONTINUOUS
 62
     7
 66
     1
 70
     1
  0
VERTEX
  8
LAYER01
 10
8.769687
 20
-1.209008
  0
VERTEX
  8
LAYER01
 10
8.394687
 20
-1.209008
  0
VERTEX
  8
LAYER01
 10
8.394687
 20
-1.684008
  0
VERTEX
  8
LAYER01
 10
8.769687
 20
-1.684008
  0
SEQEND
  8
LAYER01
  0
INSERT
  8
LAYER01
  2
CHEROKEE-G16
 10
0.0
 20
0.0
  0
LINE
  8
LAYER01
  6
CONTINUOUS
 62
     7
 10
8.769687
 20
-2.346508
 11
8.769687
 21
-1.021508
  0
LINE
  8
LAYER01
  6
CONTINUOUS
 62
     7
 10
8.394687
 20
-2.172008
 11
8.394687
 21
-1.196008
  0
LINE
  8
LAYER01
  6
CONTINUOUS
 62
     7
 10
8.394687
 20
-2.159008
 11
8.394687
 21
-1.209008
  0
LINE
  8
LAYER01
  6
CONTINUOUS
 62
     7
 10
8.394687
 20
-2.325508
 11
8.394687
 21
-1.042508
  0
LINE
  8
LAYER01
  6
CONTINUOUS
 62
     7
 10
8.394687
 20
-2.346508
 11
8.394687
 21
-1.021508
  0
TEXT
  8
LAYER01
  6
CONTINUOUS
 62
     7
 10
1.947603
 20
-3.011456
 40
0.25
  1
Optional through the wall
  0
TEXT
  8
LAYER01
  6
CONTINUOUS
 62
     7
 10
1.947603
 20
-3.261456
 40
0.25
  1
mounting tabs for BT-50 in 
  0
TEXT
  8
LAYER01
  6
CONTINUOUS
 62
     7
 10
1.947603
 20
-3.511456
 40
0.25
  1
BT-55 tubes.
  0
POLYLINE
  8
LAYER01
  6
CONTINUOUS
 62
     7
 66
     1
 70
     1
  0
VERTEX
  8
LAYER01
 10
8.769687
 20
-2.172008
  0
VERTEX
  8
LAYER01
 10
8.394687
 20
-2.172008
  0
VERTEX
  8
LAYER01
 10
8.394687
 20
-2.325508
  0
VERTEX
  8
LAYER01
 10
8.769687
 20
-2.325508
  0
SEQEND
  8
LAYER01
  0
INSERT
  8
LAYER01
  2
CHEROKEE-G17
 10
0.0
 20
0.0
  0
POLYLINE
  8
LAYER01
  6
CONTINUOUS
 62
     7
 66
     1
 70
     1
  0
VERTEX
  8
LAYER01
 10
8.769687
 20
-2.325508
  0
VERTEX
  8
LAYER01
 10
8.394687
 20
-2.325508
  0
VERTEX
  8
LAYER01
 10
8.394687
 20
-2.346508
  0
VERTEX
  8
LAYER01
 10
8.694313
 20
-2.346508
  0
VERTEX
  8
LAYER01
 10
8.769687
 20
-2.346508
  0
SEQEND
  8
LAYER01
  0
INSERT
  8
LAYER01
  2
CHEROKEE-G18
 10
0.0
 20
0.0
  0
LINE
  8
LAYER01
  6
CONTINUOUS
 62
     7
 10
8.394687
 20
-2.346508
 11
8.694313
 21
-2.346508
  0
POLYLINE
  8
LAYER01
  6
CONTINUOUS
 62
     7
 66
     1
 70
     1
  0
VERTEX
  8
LAYER01
 10
8.769687
 20
-1.684008
  0
VERTEX
  8
LAYER01
 10
8.394687
 20
-1.684008
  0
VERTEX
  8
LAYER01
 10
8.394687
 20
-2.159008
  0
VERTEX
  8
LAYER01
 10
8.769687
 20
-2.159008
  0
SEQEND
  8
LAYER01
  0
INSERT
  8
LAYER01
  2
CHEROKEE-G19
 10
0.0
 20
0.0
  0
LINE
  8
LAYER01
  6
CONTINUOUS
 62
     7
 10
8.394687
 20
-1.20896
 11
7.897043
 21
-1.20896
  0
LINE
  8
LAYER01
  6
CONTINUOUS
 62
     7
 10
7.897043
 20
-1.196008
 11
8.769687
 21
-1.196008
  0
POLYLINE
  8
LAYER01
  6
CONTINUOUS
 62
     7
 66
     1
 70
     1
  0
VERTEX
  8
LAYER01
 10
8.769687
 20
-1.042508
  0
VERTEX
  8
LAYER01
 10
8.394687
 20
-1.042508
  0
VERTEX
  8
LAYER01
 10
8.394687
 20
-1.196008
  0
VERTEX
  8
LAYER01
 10
8.769687
 20
-1.196008
  0
SEQEND
  8
LAYER01
  0
INSERT
  8
LAYER01
  2
CHEROKEE-G20
 10
0.0
 20
0.0
  0
POLYLINE
  8
LAYER01
  6
CONTINUOUS
 62
     7
 66
     1
 70
     1
  0
VERTEX
  8
LAYER01
 10
8.769687
 20
-1.021508
  0
VERTEX
  8
LAYER01
 10
8.394687
 20
-1.021508
  0
VERTEX
  8
LAYER01
 10
8.394687
 20
-1.042508
  0
VERTEX
  8
LAYER01
 10
8.769687
 20
-1.042508
  0
SEQEND
  8
LAYER01
  0
INSERT
  8
LAYER01
  2
CHEROKEE-G21
 10
0.0
 20
0.0
  0
LINE
  8
LAYER01
  6
CONTINUOUS
 62
     7
 10
8.394687
 20
-1.042508
 11
8.769687
 21
-1.042508
  0
LINE
  8
LAYER01
  6
CONTINUOUS
 62
     7
 10
8.394687
 20
-1.021508
 11
8.765681
 21
-1.021481
  0
LINE
  8
LAYER01
  6
CONTINUOUS
 62
     7
 10
8.394687
 20
-1.021508
 11
9.136434
 21
0.677581
  0
LINE
  8
LAYER01
  6
CONTINUOUS
 62
     7
 10
8.394687
 20
-1.209008
 11
8.772654
 21
-1.209008
  0
LINE
  8
LAYER01
  6
CONTINUOUS
 62
     7
 10
8.394687
 20
-1.021508
 11
8.769687
 21
-1.021508
  0
ARC
  8
LAYER01
  6
CONTINUOUS
 62
     7
 10
9.594912
 20
0.47743
 40
0.500263
 50
102.804144
 51
156.416047
  0
LINE
  8
LAYER01
  6
CONTINUOUS
 62
     7
 10
25.924163
 20
2.412421
 11
25.924163
 21
-17.592579
  0
LINE
  8
LAYER01
  6
CONTINUOUS
 62
     7
 10
25.914163
 20
2.412421
 11
25.914163
 21
-17.592579
  0
LINE
  8
LAYER01
  6
CONTINUOUS
 62
     7
 10
25.924163
 20
2.412421
 11
25.914163
 21
2.412421
  0
LINE
  8
LAYER01
  6
CONTINUOUS
 62
     7
 10
25.924163
 20
-17.592579
 11
25.914163
 21
-17.592579
  0
SOLID
  8
LAYER01
  6
CONTINUOUS
 62
     7
 10
25.924163
 20
2.412421
 11
25.924163
 21
-17.592579
 12
25.914163
 22
2.412421
 13
25.914163
 23
-17.592579
  0
ARC
  8
LAYER01
  6
CONTINUOUS
 62
     7
 10
12.794843
 20
22.748553
 40
33.847374
 50
272.44611
 51
281.726682
  0
ARC
  8
LAYER01
  6
CONTINUOUS
 62
     7
 10
12.937305
 20
-43.564081
 40
33.847374
 50
78.5195
 51
87.800071
  0
LINE
  8
LAYER01
 62
     7
 10
15.210611
 20
-9.823079
 11
15.686877
 21
-9.346813
  0
LINE
  8
LAYER01
 62
     7
 10
15.686877
 20
-9.346813
 11
15.943329
 21
-9.346813
  0
LINE
  8
LAYER01
 62
     7
 10
15.33951
 20
-9.731007
 11
15.210611
 21
-9.823079
  0
LINE
  8
LAYER01
 62
     7
 10
15.302683
 20
-9.69418
 11
15.210611
 21
-9.823079
  0
TEXT
  8
LAYER01
  6
CONTINUOUS
 62
     7
 10
16.044891
 20
-9.448375
 40
0.203125
  1
PNC-55AC
  0
TEXT
  8
LAYER01
  6
CONTINUOUS
 62
     7
 10
18.467363
 20
-14.215931
 40
2.0
  1
Cherokee-D
  0
TEXT
  8
LAYER01
  6
CONTINUOUS
 62
     7
 10
21.653543
 20
-16.991634
 40
0.25
  1
Copyright 1995 Norman Heyen
  0
POLYLINE
  8
LAYER01
  6
CONTINUOUS
 62
     7
 66
     1
 70
     1
  0
VERTEX
  8
LAYER01
 10
21.653543
 20
-15.604331
  0
VERTEX
  8
LAYER01
 10
21.653543
 20
-15.354331
  0
VERTEX
  8
LAYER01
 10
22.653543
 20
-15.354331
  0
VERTEX
  8
LAYER01
 10
22.653543
 20
-15.604331
  0
SEQEND
  8
LAYER01
  0
LINE
  8
LAYER01
  6
CONTINUOUS
 62
     7
 10
21.653543
 20
-15.479331
 11
23.153543
 21
-15.479331
  0
SOLID
  8
LAYER01
  6
CONTINUOUS
 62
     7
 10
22.653543
 20
-15.354331
 11
21.653543
 21
-15.354331
 12
22.653543
 22
-15.479331
 13
21.653543
 23
-15.479331
  0
DIMENSION
  8
LAYER01
 62
     7
  2
*D21
 10
22.653543
 20
-15.759951
 11
22.279674
 21
-15.859867
 13
21.653543
 23
-15.604331
 14
22.653543
 24
-15.604331
  0
TEXT
  8
LAYER01
  6
CONTINUOUS
 62
     7
 10
21.653543
 20
-16.204232
 40
0.25
  1
Full Scale 1"=1"
  0
TEXT
  8
LAYER01
  6
CONTINUOUS
 62
     7
 10
21.653543
 20
-16.597933
 40
0.25
  1
Drawn by Norman Heyen
  0
POLYLINE
  8
LAYER01
  6
CONTINUOUS
 62
     7
 66
     1
 70
     1
  0
VERTEX
  8
LAYER01
 10
22.653543
 20
-15.604331
  0
VERTEX
  8
LAYER01
 10
22.653543
 20
-15.354331
  0
VERTEX
  8
LAYER01
 10
23.153543
 20
-15.354331
  0
VERTEX
  8
LAYER01
 10
23.153543
 20
-15.604331
  0
SEQEND
  8
LAYER01
  0
POLYLINE
  8
LAYER01
  6
CONTINUOUS
 62
     7
 66
     1
 70
     1
  0
VERTEX
  8
LAYER01
 10
23.153543
 20
-15.604331
  0
VERTEX
  8
LAYER01
 10
23.153543
 20
-15.354331
  0
VERTEX
  8
LAYER01
 10
23.403543
 20
-15.354331
  0
VERTEX
  8
LAYER01
 10
23.403543
 20
-15.604331
  0
SEQEND
  8
LAYER01
  0
POLYLINE
  8
LAYER01
  6
CONTINUOUS
 62
     7
 66
     1
 70
     1
  0
VERTEX
  8
LAYER01
 10
23.403543
 20
-15.604331
  0
VERTEX
  8
LAYER01
 10
23.403543
 20
-15.354331
  0
VERTEX
  8
LAYER01
 10
23.528543
 20
-15.354331
  0
VERTEX
  8
LAYER01
 10
23.528543
 20
-15.604331
  0
SEQEND
  8
LAYER01
  0
SOLID
  8
LAYER01
  6
CONTINUOUS
 62
     7
 10
23.403543
 20
-15.354331
 11
23.153543
 21
-15.354331
 12
23.403543
 22
-15.479331
 13
23.153543
 23
-15.479331
  0
SOLID
  8
LAYER01
  6
CONTINUOUS
 62
     7
 10
23.153543
 20
-15.479331
 11
22.653543
 21
-15.479331
 12
23.153543
 22
-15.604331
 13
22.653543
 23
-15.604331
  0
LINE
  8
LAYER01
  6
CONTINUOUS
 62
     7
 10
23.153543
 20
-15.479331
 11
23.528543
 21
-15.479331
  0
SOLID
  8
LAYER01
  6
CONTINUOUS
 62
     7
 10
23.528543
 20
-15.479331
 11
23.403543
 21
-15.479331
 12
23.528543
 22
-15.604331
 13
23.403543
 23
-15.604331
  0
TEXT
  8
LAYER01
  6
CONTINUOUS
 62
     7
 10
14.35845
 20
-3.648467
 40
0.25
  1
Use three AR-5055 rings and a 
  0
TEXT
  8
LAYER01
  6
CONTINUOUS
 62
     7
 10
14.35845
 20
-3.898467
 40
0.25
  1
longer length of BT-50 as motor
  0
TEXT
  8
LAYER01
  6
CONTINUOUS
 62
     7
 10
14.35845
 20
-4.148467
 40
0.25
  1
mount tube. Cut 1/8" wide slots 
  0
TEXT
  8
LAYER01
  6
CONTINUOUS
 62
     7
 10
14.35845
 20
-4.398467
 40
0.25
  1
in BT-55 for fins. The notches in 
  0
TEXT
  8
LAYER01
  6
CONTINUOUS
 62
     7
 10
14.35845
 20
-4.648467
 40
0.25
  1
the fins tabs should fit tightly 
  0
TEXT
  8
LAYER01
  6
CONTINUOUS
 62
     7
 10
14.35845
 20
-4.898467
 40
0.25
  1
against the rings.
  0
LINE
  8
LAYER01
 62
     7
 10
17.241413
 20
-1.62197
 11
17.373065
 21
-1.290835
  0
LINE
  8
LAYER01
 62
     7
 10
17.373065
 20
-1.290835
 11
17.476225
 21
-1.290835
  0
LINE
  8
LAYER01
 62
     7
 10
17.323338
 20
-1.486395
 11
17.241413
 21
-1.62197
  0
LINE
  8
LAYER01
 62
     7
 10
17.274941
 20
-1.467154
 11
17.241413
 21
-1.62197
  0
TEXT
  8
LAYER01
  6
CONTINUOUS
 62
     7
 10
17.577787
 20
-1.392397
 40
0.203125
  1
Fillet with epoxy as shown
  0
POLYLINE
  8
LAYER01
  6
CONTINUOUS
 62
     7
 66
     1
 70
     1
  0
VERTEX
  8
LAYER01
 10
12.146007
 20
-1.209008
  0
VERTEX
  8
LAYER01
 10
11.771007
 20
-1.209008
  0
VERTEX
  8
LAYER01
 10
11.771007
 20
-1.684008
  0
VERTEX
  8
LAYER01
 10
12.146007
 20
-1.684008
  0
SEQEND
  8
LAYER01
  0
INSERT
  8
LAYER01
  2
CHEROKEE-G23
 10
0.0
 20
0.0
  0
POLYLINE
  8
LAYER01
  6
CONTINUOUS
 62
     7
 66
     1
 70
     1
  0
VERTEX
  8
LAYER01
 10
13.769687
 20
-1.209008
  0
VERTEX
  8
LAYER01
 10
13.394687
 20
-1.209008
  0
VERTEX
  8
LAYER01
 10
13.394687
 20
-1.684008
  0
VERTEX
  8
LAYER01
 10
13.769687
 20
-1.684008
  0
SEQEND
  8
LAYER01
  0
INSERT
  8
LAYER01
  2
CHEROKEE-G24
 10
0.0
 20
0.0
  0
LINE
  8
LAYER01
  6
CENTER
 62
     7
 10
16.581868
 20
-0.68447
 11
16.581868
 21
-2.68447
  0
ARC
  8
LAYER01
  6
CONTINUOUS
 62
     7
 10
16.581868
 20
-1.68447
 40
0.6625
 50
5.413312
 51
354.586688
  0
ARC
  8
LAYER01
  6
CONTINUOUS
 62
     7
 10
16.581868
 20
-1.68447
 40
0.6415
 50
5.591077
 51
354.408923
  0
CIRCLE
  8
LAYER01
  6
CONTINUOUS
 62
     7
 10
16.581868
 20
-1.68447
 40
0.488
  0
CIRCLE
  8
LAYER01
  6
CONTINUOUS
 62
     7
 10
16.581868
 20
-1.68447
 40
0.475
  0
LINE
  8
LAYER01
  6
CONTINUOUS
 62
     7
 10
11.771007
 20
-2.346508
 11
11.771007
 21
-1.021508
  0
LINE
  8
LAYER01
  6
CONTINUOUS
 62
     7
 10
12.146007
 20
-1.019205
 11
12.146007
 21
-2.346938
  0
LINE
  8
LAYER01
  6
CONTINUOUS
 62
     7
 10
13.769687
 20
-2.346508
 11
13.769687
 21
-1.021508
  0
LINE
  8
LAYER01
  6
CONTINUOUS
 62
     7
 10
13.394687
 20
-2.346508
 11
13.394687
 21
-1.021508
  0
LINE
  8
LAYER01
  6
CONTINUOUS
 62
     7
 10
14.58888
 20
-1.396827
 11
15.138419
 21
-1.763186
  0
LINE
  8
LAYER01
  6
CONTINUOUS
 62
     7
 10
12.066118
 20
-2.346508
 11
14.654385
 21
-2.346508
  0
POLYLINE
  8
LAYER01
  6
CONTINUOUS
 62
     7
 66
     1
 70
     1
  0
VERTEX
  8
LAYER01
 10
12.146007
 20
-2.325508
  0
VERTEX
  8
LAYER01
 10
11.771007
 20
-2.325508
  0
VERTEX
  8
LAYER01
 10
11.771007
 20
-2.346508
  0
VERTEX
  8
LAYER01
 10
12.066118
 20
-2.346508
  0
VERTEX
  8
LAYER01
 10
12.146007
 20
-2.346508
  0
SEQEND
  8
LAYER01
  0
INSERT
  8
LAYER01
  2
CHEROKEE-G25
 10
0.0
 20
0.0
  0
POLYLINE
  8
LAYER01
  6
CONTINUOUS
 62
     7
 66
     1
 70
     1
  0
VERTEX
  8
LAYER01
 10
12.146007
 20
-2.325508
  0
VERTEX
  8
LAYER01
 10
11.771007
 20
-2.325508
  0
VERTEX
  8
LAYER01
 10
11.771007
 20
-2.346508
  0
VERTEX
  8
LAYER01
 10
12.066118
 20
-2.346508
  0
VERTEX
  8
LAYER01
 10
12.146007
 20
-2.346508
  0
SEQEND
  8
LAYER01
  0
INSERT
  8
LAYER01
  2
CHEROKEE-G26
 10
0.0
 20
0.0
  0
POLYLINE
  8
LAYER01
  6
CONTINUOUS
 62
     7
 66
     1
 70
     1
  0
VERTEX
  8
LAYER01
 10
12.146007
 20
-2.172008
  0
VERTEX
  8
LAYER01
 10
11.771007
 20
-2.172008
  0
VERTEX
  8
LAYER01
 10
11.771007
 20
-2.325508
  0
VERTEX
  8
LAYER01
 10
12.146007
 20
-2.325508
  0
SEQEND
  8
LAYER01
  0
INSERT
  8
LAYER01
  2
CHEROKEE-G27
 10
0.0
 20
0.0
  0
POLYLINE
  8
LAYER01
  6
CONTINUOUS
 62
     7
 66
     1
 70
     1
  0
VERTEX
  8
LAYER01
 10
13.769687
 20
-2.325508
  0
VERTEX
  8
LAYER01
 10
13.394687
 20
-2.325508
  0
VERTEX
  8
LAYER01
 10
13.394687
 20
-2.346508
  0
VERTEX
  8
LAYER01
 10
13.769687
 20
-2.346508
  0
SEQEND
  8
LAYER01
  0
INSERT
  8
LAYER01
  2
CHEROKEE-G28
 10
0.0
 20
0.0
  0
POLYLINE
  8
LAYER01
  6
CONTINUOUS
 62
     7
 66
     1
 70
     1
  0
VERTEX
  8
LAYER01
 10
13.769687
 20
-2.172008
  0
VERTEX
  8
LAYER01
 10
13.394687
 20
-2.172008
  0
VERTEX
  8
LAYER01
 10
13.394687
 20
-2.325508
  0
VERTEX
  8
LAYER01
 10
13.769687
 20
-2.325508
  0
SEQEND
  8
LAYER01
  0
INSERT
  8
LAYER01
  2
CHEROKEE-G29
 10
0.0
 20
0.0
  0
POLYLINE
  8
LAYER01
  6
CONTINUOUS
 62
     7
 66
     1
 70
     1
  0
VERTEX
  8
LAYER01
 10
12.146007
 20
-1.684008
  0
VERTEX
  8
LAYER01
 10
11.771007
 20
-1.684008
  0
VERTEX
  8
LAYER01
 10
11.771007
 20
-2.159008
  0
VERTEX
  8
LAYER01
 10
12.146007
 20
-2.159008
  0
SEQEND
  8
LAYER01
  0
INSERT
  8
LAYER01
  2
CHEROKEE-G30
 10
0.0
 20
0.0
  0
POLYLINE
  8
LAYER01
  6
CONTINUOUS
 62
     7
 66
     1
 70
     1
  0
VERTEX
  8
LAYER01
 10
13.769687
 20
-1.684008
  0
VERTEX
  8
LAYER01
 10
13.394687
 20
-1.684008
  0
VERTEX
  8
LAYER01
 10
13.394687
 20
-2.159008
  0
VERTEX
  8
LAYER01
 10
13.769687
 20
-2.159008
  0
SEQEND
  8
LAYER01
  0
INSERT
  8
LAYER01
  2
CHEROKEE-G31
 10
0.0
 20
0.0
  0
LINE
  8
LAYER01
  6
CONTINUOUS
 62
     7
 10
18.081868
 20
-1.62197
 11
18.081868
 21
-1.74697
  0
POLYLINE
  8
LAYER01
  6
CONTINUOUS
 62
     7
 66
     1
 70
     1
  0
VERTEX
  8
LAYER01
 10
17.617743
 20
-1.62197
  0
VERTEX
  8
LAYER01
 10
17.065849
 20
-1.62197
 42
-0.064302
  0
VERTEX
  8
LAYER01
 10
17.065849
 20
-1.74697
  0
VERTEX
  8
LAYER01
 10
17.618847
 20
-1.74697
  0
VERTEX
  8
LAYER01
 10
17.649534
 20
-1.695224
  0
VERTEX
  8
LAYER01
 10
17.600017
 20
-1.660149
  0
SEQEND
  8
LAYER01
  0
INSERT
  8
LAYER01
  2
CHEROKEE-G32
 10
0.0
 20
0.0
  0
LINE
  8
LAYER01
  6
CONTINUOUS
 62
     7
 10
17.065849
 20
-1.74697
 11
17.618847
 21
-1.74697
  0
LINE
  8
LAYER01
  6
CONTINUOUS
 62
     7
 10
17.065849
 20
-1.62197
 11
17.617743
 21
-1.62197
  0
POLYLINE
  8
LAYER01
  6
CONTINUOUS
 62
     7
 66
     1
 70
     1
  0
VERTEX
  8
LAYER01
 10
17.093464
 20
-1.74697
  0
VERTEX
  8
LAYER01
 10
17.065849
 20
-1.74697
 42
-0.013721
  0
VERTEX
  8
LAYER01
 10
17.061692
 20
-1.773423
 42
-0.232236
  0
SEQEND
  8
LAYER01
  0
POLYLINE
  8
LAYER01
  6
CONTINUOUS
 62
     7
 66
     1
 70
     1
  0
VERTEX
  8
LAYER01
 10
17.220316
 20
-1.74697
  0
VERTEX
  8
LAYER01
 10
17.179893
 20
-1.74697
 42
-0.340293
  0
VERTEX
  8
LAYER01
 10
17.214155
 20
-1.7928
 42
0.018027
  0
SEQEND
  8
LAYER01
  0
POLYLINE
  8
LAYER01
  6
CONTINUOUS
 62
     7
 66
     1
 70
     1
  0
VERTEX
  8
LAYER01
 10
17.060968
 20
-1.591696
 42
-0.015713
  0
VERTEX
  8
LAYER01
 10
17.065849
 20
-1.62197
  0
VERTEX
  8
LAYER01
 10
17.096206
 20
-1.62197
 42
-0.264987
  0
SEQEND
  8
LAYER01
  0
POLYLINE
  8
LAYER01
  6
CONTINUOUS
 62
     7
 66
     1
 70
     1
  0
VERTEX
  8
LAYER01
 10
17.237579
 20
-1.589871
 42
-0.012201
  0
VERTEX
  8
LAYER01
 10
17.241413
 20
-1.62197
  0
VERTEX
  8
LAYER01
 10
17.277465
 20
-1.62197
 42
-0.296933
  0
SEQEND
  8
LAYER01
  0
POLYLINE
  8
LAYER01
  6
CONTINUOUS
 62
     7
 66
     1
 70
     1
  0
VERTEX
  8
LAYER01
 10
17.214659
 20
-1.579124
 42
-0.345549
  0
VERTEX
  8
LAYER01
 10
17.175688
 20
-1.62197
  0
VERTEX
  8
LAYER01
 10
17.220316
 20
-1.62197
 42
0.016847
  0
SEQEND
  8
LAYER01
  0
POLYLINE
  8
LAYER01
  6
CONTINUOUS
 62
     7
 66
     1
 70
     1
  0
VERTEX
  8
LAYER01
 10
17.279427
 20
-1.74697
  0
VERTEX
  8
LAYER01
 10
17.241413
 20
-1.74697
 42
-0.012319
  0
VERTEX
  8
LAYER01
 10
17.237534
 20
-1.779379
 42
-0.309301
  0
SEQEND
  8
LAYER01
  0
LINE
  8
LAYER01
  6
CONTINUOUS
 62
     7
 10
16.581868
 20
-1.74697
 11
16.581868
 21
-1.62197
  0
LINE
  8
LAYER01
  6
CENTER
 62
     7
 10
15.581868
 20
-1.68447
 11
17.581868
 21
-1.68447
  0
LINE
  8
LAYER01
  6
CONTINUOUS
 62
     7
 10
15.138419
 20
-1.763186
 11
14.267173
 21
-2.813148
  0
POLYLINE
  8
LAYER01
  6
CONTINUOUS
 62
     7
 66
     1
 70
     1
  0
VERTEX
  8
LAYER01
 10
18.081868
 20
-1.62197
  0
VERTEX
  8
LAYER01
 10
17.708377
 20
-1.62197
  0
VERTEX
  8
LAYER01
 10
17.688735
 20
-1.664275
  0
VERTEX
  8
LAYER01
 10
17.738252
 20
-1.69935
  0
VERTEX
  8
LAYER01
 10
17.710012
 20
-1.74697
  0
VERTEX
  8
LAYER01
 10
18.081868
 20
-1.74697
  0
SEQEND
  8
LAYER01
  0
INSERT
  8
LAYER01
  2
CHEROKEE-G33
 10
0.0
 20
0.0
  0
LINE
  8
LAYER01
  6
CONTINUOUS
 62
     7
 10
17.710012
 20
-1.74697
 11
18.081868
 21
-1.74697
  0
LINE
  8
LAYER01
  6
CONTINUOUS
 62
     7
 10
17.708377
 20
-1.62197
 11
18.081868
 21
-1.62197
  0
POLYLINE
  8
LAYER01
  6
CONTINUOUS
 62
     7
 66
     1
  0
VERTEX
  8
LAYER01
 10
17.7692
 20
-1.490966
  0
VERTEX
  8
LAYER01
 10
17.688735
 20
-1.664275
  0
VERTEX
  8
LAYER01
 10
17.738252
 20
-1.69935
  0
VERTEX
  8
LAYER01
 10
17.633029
 20
-1.876786
  0
SEQEND
  8
LAYER01
  0
POLYLINE
  8
LAYER01
  6
CONTINUOUS
 62
     7
 66
     1
  0
VERTEX
  8
LAYER01
 10
17.680482
 20
-1.48684
  0
VERTEX
  8
LAYER01
 10
17.600017
 20
-1.660149
  0
VERTEX
  8
LAYER01
 10
17.649534
 20
-1.695224
  0
VERTEX
  8
LAYER01
 10
17.544311
 20
-1.872659
  0
SEQEND
  8
LAYER01
  0
LINE
  8
LAYER01
  6
CONTINUOUS
 62
     7
 10
11.771007
 20
-1.042508
 11
14.84432
 21
-1.042508
  0
LINE
  8
LAYER01
  6
CONTINUOUS
 62
     7
 10
11.771007
 20
-1.021508
 11
14.859459
 21
-1.021508
  0
ARC
  8
LAYER01
  6
CONTINUOUS
 62
     7
 10
11.289856
 20
1.247406
 40
0.125066
 50
17.733898
 51
102.804144
  0
POLYLINE
  8
LAYER01
  6
CONTINUOUS
 62
     7
 66
     1
 70
     1
  0
VERTEX
  8
LAYER01
 10
12.146007
 20
-1.042508
  0
VERTEX
  8
LAYER01
 10
11.771007
 20
-1.042508
  0
VERTEX
  8
LAYER01
 10
11.771007
 20
-1.196008
  0
VERTEX
  8
LAYER01
 10
12.146007
 20
-1.196008
  0
SEQEND
  8
LAYER01
  0
INSERT
  8
LAYER01
  2
CHEROKEE-G34
 10
0.0
 20
0.0
  0
LINE
  8
LAYER01
  6
CONTINUOUS
 62
     7
 10
11.771006
 20
-1.021264
 11
12.146656
 21
-1.021237
  0
LINE
  8
LAYER01
  6
CONTINUOUS
 62
     7
 10
12.146656
 20
-1.021237
 11
11.408979
 21
1.2855
  0
LINE
  8
LAYER01
  6
CONTINUOUS
 62
     7
 10
11.771007
 20
-1.196008
 11
13.769687
 21
-1.196008
  0
LINE
  8
LAYER01
  6
CONTINUOUS
 62
     7
 10
11.771007
 20
-1.209008
 11
13.769687
 21
-1.209008
  0
POLYLINE
  8
LAYER01
  6
CONTINUOUS
 62
     7
 66
     1
 70
     1
  0
VERTEX
  8
LAYER01
 10
13.769687
 20
-1.021508
  0
VERTEX
  8
LAYER01
 10
13.394687
 20
-1.021508
  0
VERTEX
  8
LAYER01
 10
13.394687
 20
-1.042508
  0
VERTEX
  8
LAYER01
 10
13.769687
 20
-1.042508
  0
SEQEND
  8
LAYER01
  0
INSERT
  8
LAYER01
  2
CHEROKEE-G35
 10
0.0
 20
0.0
  0
POLYLINE
  8
LAYER01
  6
CONTINUOUS
 62
     7
 66
     1
 70
     1
  0
VERTEX
  8
LAYER01
 10
13.769687
 20
-1.042508
  0
VERTEX
  8
LAYER01
 10
13.394687
 20
-1.042508
  0
VERTEX
  8
LAYER01
 10
13.394687
 20
-1.196008
  0
VERTEX
  8
LAYER01
 10
13.769687
 20
-1.196008
  0
SEQEND
  8
LAYER01
  0
INSERT
  8
LAYER01
  2
CHEROKEE-G36
 10
0.0
 20
0.0
  0
LINE
  8
LAYER01
  6
CONTINUOUS
 62
     7
 10
14.58888
 20
-1.396827
 11
15.14329
 21
-0.627807
  0
TEXT
  8
LAYER01
  6
CONTINUOUS
 62
     7
 10
14.835533
 20
0.598251
 40
0.25
  1
Through the wall fin
  0
TEXT
  8
LAYER01
  6
CONTINUOUS
 62
     7
 10
14.835533
 20
0.348251
 40
0.25
  1
mounting detail
  0
ENDSEC
  0
EOF
